Trio Zadig - Something in Between (2019) [Official Digital Download 24/96]

Posted By: El Misha
Trio Zadig - Something in Between (2019) [Official Digital Download 24/96]

Trio Zadig - Something in Between (2019)
FLAC (tracks) 24-bit/96 kHz | Time - 01:10:04 | 1.22 GB
Studio Master, Official Digital Download | Artwork: Front cover+digital booklet

This fruitful “encounter” between Leonard Bernstein and Maurice Ravel juxtaposes Bernstein’s intensity and rhythmic vitality with the melancholy refinement of Ravel’s colours, while also highlighting the composers’ commonalities, such as a shared tonal language and masterful incorporation of jazz idioms. Our purpose, however, is not only to appreciate an artistic cross- exchange but also to build upon it. This is what Trio Zadig and Benjamin Attahir seek in Asfar, a new work that springs from the creative nexus of these 20th-century giants and continues the conversation.
The Zadig Trio came together when two childhood friends from France, Boris Borgolotto and Marc Girard Garcia, met American pianist, Ian Barber. Already, they have been awarded 11 international prizes at international competitions in France, Italy, Austria and USA. With depth and passion they play a repertoire that goes from Haydn to contemporary composers.



Tracklist:

01. Candide: Overture (Transcripted by Bruno Fontaine)
02. A West Side Story Fantasy: I. Prelude
03. A West Side Story Fantasy: II. Something's Coming
04. A West Side Story Fantasy: III. Cha-Cha/Maria
05. A West Side Story Fantasy: IV. Mambo
06. A West Side Story Fantasy: V. Cool
07. A West Side Story Fantasy: VI. One Hand, One Heart
08. A West Side Story Fantasy: VII. The Rumble
09. A West Side Story Fantasy: VIII. I Feel Pretty
10. A West Side Story Fantasy: IX. Tonight
11. A West Side Story Fantasy: X. Somewhere
12. A West Side Story Fantasy: XI. America
13. A West Side Story Fantasy: XII. Final
14. Asfar
15. Trio en La Mineur pour piano, violon et violoncelle, M. 67: I. Modéré
16. Trio en La Mineur pour piano, violon et violoncelle, M. 67: II. Pantoum (Assez vif)
17. Trio en La Mineur pour piano, violon et violoncelle, M. 67: III. Passacaille (Très large)
18. Trio en La Mineur pour piano, violon et violoncelle, M. 67: IV. Final (Animé)

foobar2000 1.3.16 / Dynamic Range Meter 1.1.1
log date: 2019-03-15 04:38:24

––––––––––––––––––––––––––––––––––––––––
Analyzed: Trio Zadig / Something in Between
––––––––––––––––––––––––––––––––––––––––

DR Peak RMS Duration Track
––––––––––––––––––––––––––––––––––––––––
DR12 -1.01 dB -17.51 dB 4:43 01-Candide: Overture (Transcripted by Bruno Fontaine)
DR14 -1.04 dB -21.05 dB 2:28 02-I. Prelude
DR13 -3.82 dB -23.30 dB 1:46 03-II. Something's Coming
DR11 -1.94 dB -24.33 dB 0:57 04-III. Cha-Cha/Maria
DR11 -1.02 dB -15.20 dB 1:20 05-IV. Mambo
DR13 -1.19 dB -19.85 dB 1:49 06-V. Cool
DR12 -7.98 dB -27.95 dB 1:40 07-VI. One Hand, One Heart
DR12 -1.06 dB -16.89 dB 0:38 08-VII. The Rumble
DR11 -2.45 dB -19.56 dB 1:10 09-VIII. I Feel Pretty
DR13 -1.02 dB -17.47 dB 1:32 10-IX. Tonight
DR13 -4.70 dB -25.38 dB 2:22 11-X. Somewhere
DR13 -1.02 dB -18.81 dB 2:15 12-XI. America
DR14 -1.02 dB -22.04 dB 3:57 13-XII. Final
DR15 -1.02 dB -20.72 dB 16:41 14-Asfar
DR16 -1.75 dB -24.02 dB 9:39 15-I. ModГ©rГ©
DR13 -1.05 dB -19.59 dB 4:24 16-II. Pantoum (Assez vif)
DR15 -2.00 dB -25.54 dB 7:34 17-III. Passacaille (TrГЁs large)
DR12 -1.02 dB -16.56 dB 5:18 18-IV. Final (AnimГ©)
––––––––––––––––––––––––––––––––––––––––

Number of tracks: 18
Official DR value: DR13

Samplerate: 96000 Hz
Channels: 2
Bits per sample: 24
Bitrate: 2715 kbps
Codec: FLAC
=========================================================================


Thanks to the Original customer!