Trio Arnold - Beethoven: String Trios, Op. 9 (2021) [Official Digital Download 24/96]

Posted By: delpotro
Trio Arnold - Beethoven: String Trios, Op. 9 (2021) [Official Digital Download 24/96]

Trio Arnold - Beethoven: String Trios, Op. 9 (2021)
FLAC (tracks) 24-bit/96 kHz | Front Cover & Digital Booklet | Time - 71:54 minutes | 1,31 GB
Classical | Label: Mirare, Official Digital Download

The “best of my works,” as Beethoven described his String Trios Op.9 when they were published in July 1798.

Indeed, the young composer surpassed himself throughout a triptych of works combining beauty of sound, formal originality and a high degree of instrumental virtuosity.

Trio Arnold, one of the few permanent ensembles specialising in the string trio repertory, bring to these masterpieces the right blend of perfectionism and intensity that makes for great interpretations.

Tracklist:
01. String Trio in G Major, Op. 9 No. 1: I. Adagio - Allegro con brio (G Major)
02. String Trio in G Major, Op. 9 No. 1: II. Adagio ma non tanto e cantabile (E Major)
03. String Trio in G Major, Op. 9 No. 1: III. Scherzo. Allegro (G Major) - Trio (C Major)
04. String Trio in G Major, Op. 9 No. 1: IV. Presto (G Major)
05. String Trio in D Major, Op. 9 No. 2: I. Allegretto (D Major)
06. String Trio in D Major, Op. 9 No. 2: II. Andante quasi allegretto (D Minor)
07. String Trio in D Major, Op. 9 No. 2: III. Minuet. Allegro (D Major) - Trio (B Minor)
08. String Trio in D Major, Op. 9 No. 2: IV. Rondo. Allegro (D Major)
09. String Trio in C Minor, Op. 9 No. 3: I. Allegro con spirito (C Minor)
10. String Trio in C Minor, Op. 9 No. 3: II. Adagio con espressione (C Major)
11. String Trio in C Minor, Op. 9 No. 3: III. Scherzo. Allegro molto e vivace (C Minor) - Trio (C Major)
12. String Trio in C Minor, Op. 9 No. 3: IV. Finale. Presto (C Minor)

foobar2000 1.4.1 / Dynamic Range Meter 1.1.1
log date: 2021-02-23 17:20:49

––––––––––––––––––––––––––––––––––––––––
Analyzed: Trio Arnold / Beethoven: Trios à cordes, Op. 9
––––––––––––––––––––––––––––––––––––––––

DR Peak RMS Duration Track
––––––––––––––––––––––––––––––––––––––––
DR11 -0.01 dB -15.48 dB 9:26 01-String Trio in G Major, Op. 9 No. 1: I. Adagio - Allegro con brio (G Major)
DR14 -0.01 dB -19.41 dB 7:25 02-String Trio in G Major, Op. 9 No. 1: II. Adagio ma non tanto e cantabile (E Major)
DR14 -0.01 dB -17.28 dB 4:43 03-String Trio in G Major, Op. 9 No. 1: III. Scherzo. Allegro (G Major) - Trio (C Major)
DR11 -0.01 dB -14.99 dB 5:04 04-String Trio in G Major, Op. 9 No. 1: IV. Presto (G Major)
DR12 -0.01 dB -16.55 dB 7:33 05-String Trio in D Major, Op. 9 No. 2: I. Allegretto (D Major)
DR14 -0.01 dB -19.12 dB 5:15 06-String Trio in D Major, Op. 9 No. 2: II. Andante quasi allegretto (D Minor)
DR14 -0.01 dB -18.29 dB 3:42 07-String Trio in D Major, Op. 9 No. 2: III. Minuet. Allegro (D Major) - Trio (B Minor)
DR12 -0.01 dB -16.12 dB 5:51 08-String Trio in D Major, Op. 9 No. 2: IV. Rondo. Allegro (D Major)
DR11 -0.01 dB -15.53 dB 7:10 09-String Trio in C Minor, Op. 9 No. 3: I. Allegro con spirito (C Minor)
DR12 -0.01 dB -18.15 dB 7:10 10-String Trio in C Minor, Op. 9 No. 3: II. Adagio con espressione (C Major)
DR12 -0.01 dB -16.70 dB 2:55 11-String Trio in C Minor, Op. 9 No. 3: III. Scherzo. Allegro molto e vivace (C Minor) - Trio (C Major)
DR11 -0.01 dB -15.60 dB 5:40 12-String Trio in C Minor, Op. 9 No. 3: IV. Finale. Presto (C Minor)
––––––––––––––––––––––––––––––––––––––––

Number of tracks: 12
Official DR value: DR12

Samplerate: 96000 Hz
Channels: 2
Bits per sample: 24
Bitrate: 2653 kbps
Codec: FLAC
================================================================================


Thanks to the Original customer!