Tags
Language
Tags
June 2024
Su Mo Tu We Th Fr Sa
26 27 28 29 30 31 1
2 3 4 5 6 7 8
9 10 11 12 13 14 15
16 17 18 19 20 21 22
23 24 25 26 27 28 29
30 1 2 3 4 5 6

Uxila Exile - Songs for Harry S. Truman (2021) [Official Digital Download]

Posted By: delpotro
Uxila Exile - Songs for Harry S. Truman (2021) [Official Digital Download]

Uxila Exile - Songs for Harry S. Truman (2021)
FLAC (tracks) 24-bit/44,1 kHz | Front Cover | Time - 52:59 minutes | 574 MB
Jazz | Label: Eclipse Music, Official Digital Download

UXILA EXILE ignites its campfire at the crossroad of European contemporary jazz, experimental rhythmic music and jazz traditions. Vibraphonist-composer Ilkka Uksila is accompanied in this musical exile by the virtuoso Tomi Nikku, the convincing Joonas Tuuri and the swinging Ville Luukkonen.

The band's music is inspired by e.g. stories borrowed from films and literature, as well as its members’ own observations. Compositions based on strong imagery are etherial but at the same time intact, mostly gentle interpretations of what the captured moments of the stories sound like.

Tracklist:
1. Crane Island (07:22)
2. Song for Harry (07:40)
3. Navy Blues (04:45)
4. One Grain of Sand (07:13)
5. Minnesota (07:13)
6. Trace(s) (05:02)
7. Land of Scorpions (07:48)
8. Wings (05:52)

foobar2000 1.4.1 / Dynamic Range Meter 1.1.1
log date: 2021-10-30 13:37:32

––––––––––––––––––––––––––––––––––––––––
Analyzed: Uxila Exile / Songs for Harry S. Truman
––––––––––––––––––––––––––––––––––––––––

DR Peak RMS Duration Track
––––––––––––––––––––––––––––––––––––––––
DR11 -0.02 dB -13.34 dB 7:23 01-Crane Island
DR10 -0.02 dB -11.99 dB 7:41 02-Song for Harry
DR9 -0.02 dB -12.02 dB 4:45 03-Navy Blues
DR11 -0.02 dB -14.74 dB 7:14 04-One Grain of Sand
DR10 -0.01 dB -11.94 dB 7:13 05-Minnesota
DR10 -0.01 dB -12.30 dB 5:03 06-Trace(s)
DR11 -0.01 dB -12.90 dB 7:49 07-Land of Scorpions
DR11 -0.01 dB -14.88 dB 5:53 08-Wings
––––––––––––––––––––––––––––––––––––––––

Number of tracks: 8
Official DR value: DR10

Samplerate: 44100 Hz
Channels: 2
Bits per sample: 24
Bitrate: 1393 kbps
Codec: FLAC
================================================================================


Thanks to the Original customer!