WDR Sinfonieorchester Chamber Players - Bruch: String Quintets & Octet (2021) [Official Digital Download 24/48]

Posted By: delpotro
WDR Sinfonieorchester Chamber Players - Bruch: String Quintets & Octet (2021) [Official Digital Download 24/48]

WDR Sinfonieorchester Chamber Players - Bruch: String Quintets & Octet (2021)
FLAC (tracks) 24-bit/48 kHz | Front Cover & Digital Booklet | Time - 67:37 minutes | 687 MB
Classical | Label: Alpha Classics, Official Digital Download

Max Bruch was eighty years old when, in 1918, he decided to return to the chamber music genre he had frequented in his early years. Stimulated by the violin virtuoso Willy Hess, he composed two string quintets and an octet, monuments to beauty and harmony, at the end of a tumultuous personal life and in the midst of a western world on the brink of collapse. After an album devoted to Beethoven’s chamber music, the Chamber Players of the WDR Sinfonieorchester now tackle one of the last chapters of German Romantic music, with pieces that constitute Bruch’s swansong.

Tracklist:
1. String Quintet in E-Flat Major, Op. Posth.: I. Andante con moto (03:03)
2. String Quintet in E-Flat Major, Op. Posth.: II. Allegro (03:37)
3. String Quintet in E-Flat Major, Op. Posth.: III. Andante con moto (05:34)
4. String Quintet in E-Flat Major, Op. Posth.: IV. Andante con moto - Allegro ma non troppo vivace (06:34)
5. String Quintet in A Minor, Op. Posth.: I. Allegro (09:56)
6. String Quintet in A Minor, Op. Posth.: II. Allegro molto (03:46)
7. String Quintet in A Minor, Op. Posth.: III. Adagio non troppo (04:07)
8. String Quintet in A Minor, Op. Posth.: IV. Allegro (07:05)
9. String Octet in B-Flat Major, Op. Posth.: I. Allegro moderato (10:33)
10. String Octet in B-Flat Major, Op. Posth.: II. Adagio - Andante con moto di molto (07:14)
11. String Octet in B-Flat Major, Op. Posth.: III. Allegro molto (06:00)

foobar2000 1.4.1 / Dynamic Range Meter 1.1.1
log date: 2021-06-23 17:20:23

––––––––––––––––––––––––––––––––––––––––
Analyzed: WDR Sinfonieorchester Chamber Players / Bruch: String Quintets & Octet
––––––––––––––––––––––––––––––––––––––––

DR Peak RMS Duration Track
––––––––––––––––––––––––––––––––––––––––
DR13 -8.29 dB -29.23 dB 3:04 01-Bruch: String Quintet in E-Flat Major, Op. Posth.: I. Andante con moto
DR15 -0.30 dB -22.25 dB 3:37 02-Bruch: String Quintet in E-Flat Major, Op. Posth.: II. Allegro
DR15 -6.22 dB -27.80 dB 5:35 03-Bruch: String Quintet in E-Flat Major, Op. Posth.: III. Andante con moto
DR15 -2.20 dB -23.93 dB 6:34 04-Bruch: String Quintet in E-Flat Major, Op. Posth.: IV. Andante con moto - Allegro ma non troppo vivace
DR15 -1.91 dB -21.80 dB 9:57 05-Bruch: String Quintet in A Minor, Op. Posth.: I. Allegro
DR15 -4.39 dB -24.76 dB 3:47 06-Bruch: String Quintet in A Minor, Op. Posth.: II. Allegro molto
DR13 -6.58 dB -25.37 dB 4:08 07-Bruch: String Quintet in A Minor, Op. Posth.: III. Adagio non troppo
DR14 -2.97 dB -20.46 dB 7:06 08-Bruch: String Quintet in A Minor, Op. Posth.: IV. Allegro
DR15 -1.08 dB -20.03 dB 10:34 09-Bruch: String Octet in B-Flat Major, Op. Posth.: I. Allegro moderato
DR14 -5.73 dB -25.75 dB 7:15 10-Bruch: String Octet in B-Flat Major, Op. Posth.: II. Adagio - Andante con moto di molto
DR14 -3.33 dB -21.34 dB 6:01 11-Bruch: String Octet in B-Flat Major, Op. Posth.: III. Allegro molto
––––––––––––––––––––––––––––––––––––––––

Number of tracks: 11
Official DR value: DR14

Samplerate: 48000 Hz
Channels: 2
Bits per sample: 24
Bitrate: 1455 kbps
Codec: FLAC
================================================================================


Thanks to the Original customer!