Tags
Language
Tags

William Fitzsimmons - Ready the Astronaut (2021) [Official Digital Download]

Posted By: delpotro
William Fitzsimmons - Ready the Astronaut (2021) [Official Digital Download]

William Fitzsimmons - Ready the Astronaut (2021)
FLAC (tracks) 24-bit/44,1 kHz | Front Cover | Time - 40:19 minutes | 426 MB
Indie Folk, Indie Pop, Singer-Songwriter | Label: Nettwerk Records, Official Digital Download

Centering around the Icarus myth, William Fitzsimmons' seventh album sees him debark on a slightly different sound aesthetic, yet still his distinctive voice holds it all together. For fans of Bon Iver, The National, Sufjan Stevens and Jose' Gonzalez.

Over the course of his career, William Fitzsimmons has made his living writing a specific brand of honest and inward-looking folk songs that fearlessly and candidly examine the evolving self while dexterously communicating his talent for robust melodies and catchy instrumentation. That the subject matter tends to dwell on the darker parts of human existence and relationships is no coincidence. Now, Fitzsimmons is set to release Ready the Astronaut (out June 25 via Nettwerk Records) as a powerful testament to his own past, and by weaving his story through the familiar tale of Icarus, he illustrates his willingness to accept his life’s highs and lows by paying tribute to the influence they have on the future.

“I’ve always been fascinated by the astronaut thing,” he says. “When I was a kid, the idea of escaping my situation was attractive. Having disabled parents, being fat, being a band nerd, and made fun of on the bus every morning…I wanted to escape the corporeal realm, to escape my body and my family. The farthest you can get is putting on a spacesuit and getting the hell out of Dodge. Somewhere that was always in the back of my head. And at that moment in Nashville, at 41 years old and already through one divorce, I had thought this was the relationship that was gonna fix everything. And all of a sudden everything was happening all over again; I was right back to where I started, again. That was an overwhelmingly bad feeling and I just wanted to escape. The album was born out of wanting to not have to live over the same mistakes that I had made so many times already.”

Out today, the latest single “If I Fell Back To The Earth (You Will Never Find Me)” is about how anger is not a negative emotion. Righteous anger gives us the strength to seek justice. To not accept unfairness or wrongdoing.

Speaking with American Songwriter, Fitzsimmons says, “I felt like I was similar to the Icarus character because I made a lot of the same mistakes that he made in his life,” says Fitzsimmons. “So, I just started writing songs surrounding that theme. Mostly, the record is about going up, going down and trying to get back up, learning from your mistakes, but messing it up all over again.”

As part of the release, Fitzsimmons will be releasing a series of concept videos for each single that delve into the Icarus myth. Speaking about the video, William says, "'Ready the Astronaut' is built around the Icarus myth of ascension and descension; rising and falling. The attempt to achieve fulfillment but gloriously failing only to try again. The music videos are built around the same themes and are a perfect companion and elaboration on this story. The loneliness and isolation of the astronaut who, on his own, sets out on a voyage to a different land, only to continually fall back to the earth, his previous mistakes, fears, and failures meeting him on the ground. But he continues to get up, dust his wings off, and try to fly again."

Tracklist:
1. Dancing on the Sun (03:25)
2. No Promises (03:39)
3. Down with One Another (03:07)
4. Daedalus, My Father (04:01)
5. As Long as I Can Breathe (02:30)
6. Ready the Astronaut (04:26)
7. You Let Me Down (03:42)
8. Maybe She Will Change Her Mind (04:55)
9. If I Fell Back to the Earth (You Will Never Find Me) (03:11)
10. Icarus (04:23)
11. To Love Forever (02:53)

foobar2000 1.4.1 / Dynamic Range Meter 1.1.1
log date: 2021-06-27 21:46:22

––––––––––––––––––––––––––––––––––––––––
Analyzed: William Fitzsimmons / Ready the Astronaut
––––––––––––––––––––––––––––––––––––––––

DR Peak RMS Duration Track
––––––––––––––––––––––––––––––––––––––––
DR9 -0.70 dB -11.99 dB 3:25 01-Dancing on the Sun
DR8 -0.70 dB -10.50 dB 3:39 02-No Promises
DR9 -0.70 dB -11.93 dB 3:08 03-Down with Another One
DR11 -0.70 dB -14.20 dB 4:02 04-Daedalus, My Father
DR9 -0.77 dB -11.53 dB 2:31 05-As Long as I Can Breathe
DR9 -0.70 dB -11.62 dB 4:27 06-Ready the Astronaut
DR8 -0.70 dB -11.02 dB 3:43 07-You Let Me Down
DR9 -0.70 dB -11.91 dB 4:56 08-Maybe She Will Change Her Mind
DR8 -0.70 dB -11.67 dB 3:11 09-If I Fell Back to the Earth (You Will Never Find Me)
DR10 -0.70 dB -12.53 dB 4:23 10-Icarus
DR11 -1.56 dB -16.10 dB 2:54 11-To Love Forever
––––––––––––––––––––––––––––––––––––––––

Number of tracks: 11
Official DR value: DR9

Samplerate: 44100 Hz
Channels: 2
Bits per sample: 24
Bitrate: 1366 kbps
Codec: FLAC
================================================================================


Thanks to the Original customer!