Zefiro & Alfredo Bernardini - Fux: Dafne in lauro (2021) [Official Digital Download 24/48]

Posted By: delpotro
Zefiro & Alfredo Bernardini - Fux: Dafne in lauro (2021) [Official Digital Download 24/48]

Zefiro & Alfredo Bernardini - Fux: Dafne in lauro (2021)
FLAC (tracks) 24-bit/48 kHz | Front Cover & Digital Booklet | Time - 118:14 minutes | 1,25 GB
Classical, Opera | Label: Arcana, Official Digital Download

In 2018, the Styriarte Festival in Graz launched, in collaboration with Zefiro, a project to rediscover the operatic output of the Styrian composer Johann Joseph Fux (1660-1741), Kapellmeister at the imperial court in Vienna for forty years, with the aim of restaging six of his nineteen operas, one per year. With a cast of Baroque vocal specialists, led by Monica Piccinini and Arianna Venditelli, this set of Dafne in lauro marks the beginning of a new series in which Arcana will release the recordings made in the course of the six-year cycle. First performed on 1 October 1714 to celebrate the birthday of the Emperor Charles VI, Dafne in lauro is distinguished by the numerous references to hunting in the overture and in Diana’s arias, and by the numerous dance movements typical of the French style, such as minuets, gigues and bourrées. The highlight is Daphne’s poignant aria accompanied by the viola da gamba, which, along with the chalumeau and the transverse flute, enriches the range of tone colours in the score.

Tracklist:
Disc 1 (01:11:00)
1. Zefiro & Alfredo Bernardini – Dafne in lauro, K308: No. 1, Sinfonia (04:30)
2. Monica Piccinini, Zefiro & Alfredo Bernardini – Dafne in lauro, K308: No. 2, Recitativo. Dafne, se mai ti cinse (Diana) (01:08)
3. Monica Piccinini, Zefiro & Alfredo Bernardini – Dafne in lauro, K308: No. 3, Aria. Perde il tempo, e perde il core (Diana) (03:02)
4. Arianna Vendittelli, Zefiro & Alfredo Bernardini – Dafne in lauro, K308: No. 4, Recitativo. Chi d’Amor sa le frodi (Dafne) (01:07)
5. Arianna Vendittelli, Zefiro & Alfredo Bernardini – Dafne in lauro, K308: No. 5, Aria. Io so che tanto piace (Dafne) (03:04)
6. Sonia Tedla, Zefiro & Alfredo Bernardini – Dafne in lauro, K308: No. 6, Recitativo accompagnato. Udite, ma tacete (Amore) (01:32)
7. Sonia Tedla, Zefiro & Alfredo Bernardini – Dafne in lauro, K308: No. 7, Aria. Non v’è cor che del mio foco (Amore) (02:31)
8. Valerio Contaldo, Sonia Tedla, Zefiro & Alfredo Bernardini – Dafne in lauro, K308: No. 8, Recitativo. Ben ti vanti. Ad Apollo (Mercurio, Amore) (01:41)
9. Valerio Contaldo, Zefiro & Alfredo Bernardini – Dafne in lauro, K308: No. 9, Aria. Non è il sol che col raggio vitale (Mercurio) (03:20)
10. Raffaele Pe, Sonia Tedla, Zefiro & Alfredo Bernardini – Dafne in lauro, K308: No. 10, Recitativo. Coronatemi l’arco, o vaghi fiori (Apollo, Amore) (02:09)
11. Raffaele Pe, Zefiro & Alfredo Bernardini – Dafne in lauro, K308: No. 11, Aria. Lusingato (Apollo) (04:10)
12. Sonia Tedla, Raffaele Pe, Monica Piccinini, Zefiro & Alfredo Bernardini – Dafne in lauro, K308: No. 12, Recitativo. D’Amor tanto nemico? (Amore, Apollo, Diana) (01:31)
13. Monica Piccinini, Zefiro & Alfredo Bernardini – Dafne in lauro, K308: No. 13, Aria. Sappia il monte, il colle, il piano (Diana) (02:23)
14. Zefiro & Alfredo Bernardini – Dafne in lauro, K308: No. 14, Coro di Ninfe, e di Pastori. Da Cintia a le piante (02:09)
15. Monica Piccinini, Arianna Vendittelli, Raffaele Pe, Sonia Tedla, Zefiro & Alfredo Bernardini – Dafne in lauro, K308: No. 15, Recitativo. Dafne, tu che sì fida (Diana, Dafne, Apollo, Amore) (03:40)
16. Raffaele Pe, Zefiro & Alfredo Bernardini – Dafne in lauro, K308: No. 16, Aria. Ferma, o cara, o se tu parti (Apollo) (05:40)
17. Arianna Vendittelli, Raffaele Pe, Zefiro & Alfredo Bernardini – Dafne in lauro, K308: No. 17, Recitativo. Lascia, lascia il mio velo (Dafne, Apollo) (00:37)
18. Arianna Vendittelli, Zefiro & Alfredo Bernardini – Dafne in lauro, K308: No. 18, Aria. Serba il tuo cor per te (Dafne) (03:06)
19. Raffaele Pe, Sonia Tedla, Valerio Contaldo, Zefiro & Alfredo Bernardini – Dafne in lauro, K308: No. 19, Recitativo. Parte la bella, e seco (Apollo, Amore, Mercurio) (03:25)
20. Valerio Contaldo, Zefiro & Alfredo Bernardini – Dafne in lauro, K308: No. 20, Aria. Qual si nutrisca il fior con le rugiade (Mercurio) (04:48)
21. Monica Piccinini, Arianna Vendittelli, Zefiro & Alfredo Bernardini – Dafne in lauro, K308: No. 21, Recitativo. E tu perciò lasciasti (Diana, Dafne) (00:59)
22. Monica Piccinini, Zefiro & Alfredo Bernardini – Dafne in lauro, K308: No. 22, Aria. Fan gli amanti come fa (Diana) (03:40)
23. Arianna Vendittelli, Zefiro & Alfredo Bernardini – Dafne in lauro, K308: No. 23, Recitativo. Per te, per l’altre Dive, al di cui petto (Dafne) (00:53)
24. Arianna Vendittelli, Zefiro & Alfredo Bernardini – Dafne in lauro, K308: No. 24, Aria. Va prigioniero (Dafne) (03:45)
25. Monica Piccinini, Arianna Vendittelli, Zefiro & Alfredo Bernardini – Dafne in lauro, K308: No. 25, Recitativo. Dunque Amor sì paventi (Diana, Dafne) (00:29)
26. Monica Piccinini, Arianna Vendittelli, Zefiro & Alfredo Bernardini – Dafne in lauro, K308: No. 26, Duetto. Non v’è pace, non v’è calma (Diana, Dafne) (05:41)

Disc 2 (46:51)
1. Raffaele Pe, Sonia Tedla, Zefiro & Alfredo Bernardini – Dafne in lauro, K308: No. 27, Recitativo. Ahi! Qual pena è l’amor privo di speme! (Apollo, Amore) (02:01)
2. Raffaele Pe, Zefiro & Alfredo Bernardini – Dafne in lauro, K308: No. 28, Aria. In quel volto di gigli, e di rose (Apollo) (02:28)
3. Valerio Contaldo, Raffaele Pe, Zefiro & Alfredo Bernardini – Dafne in lauro, K308: No. 29, Recitativo. Apollo ancor vaneggia? (Mercurio, Apollo) (01:07)
4. Valerio Contaldo, Zefiro & Alfredo Bernardini – Dafne in lauro, K308: No. 30, Aria. A l’or ch’è più agitato (Mercurio) (03:33)
5. Monica Piccinini, Raffaele Pe, Arianna Vendittelli, Zefiro & Alfredo Bernardini – Dafne in lauro, K308: No. 31, Recitativo. Or va’. Richiama, o Dafne (Diana, Apollo, Dafne) (02:21)
6. Raffaele Pe, Arianna Vendittelli, Zefiro & Alfredo Bernardini – Dafne in lauro, K308: No. 32, Duetto. Nel pensier di sempre amarti (Apollo, Dafne) (02:22)
7. Valerio Contaldo, Monica Piccinini, Sonia Tedla, Zefiro & Alfredo Bernardini – Dafne in lauro, K308: No. 33, Recitativo. Questo, Diana, è ’l cenno (Mercurio, Diana, Amore) (01:28)
8. Zefiro & Alfredo Bernardini – Dafne in lauro, K308: No. 34, Coro. O beata ventura! – Vieni con nuovi rai (03:37)
9. Raffaele Pe, Monica Piccinini, Sonia Tedla, Zefiro & Alfredo Bernardini – Dafne in lauro, K308: No. 35, Recitativo. Regga chi vuol del dì lucente il corso (Apollo, Diana, Amore) (01:00)
10. Sonia Tedla, Zefiro & Alfredo Bernardini – Dafne in lauro, K308: No. 36, Aria. Io so con cento frodi (Amore) (01:52)
11. Monica Piccinini, Zefiro & Alfredo Bernardini – Dafne in lauro, K308: No. 37, Recitativo. Se dunque a la virtute (Diana) (00:35)
12. Monica Piccinini, Zefiro & Alfredo Bernardini – Dafne in lauro, K308: No. 38, Aria. Ciaccona. Il voler vincer Amore (Diana) (04:13)
13. Raffaele Pe, Arianna Vendittelli, Zefiro & Alfredo Bernardini – Dafne in lauro, K308: No. 39, Recitativo. Vincer non so né voglio (Apollo, Dafne) (02:24)
14. Arianna Vendittelli, Zefiro & Alfredo Bernardini – Dafne in lauro, K308: No. 40, Aria. Lascio d’esser Ninfa, sì (Dafne) (08:12)
15. Raffaele Pe, Zefiro & Alfredo Bernardini – Dafne in lauro, K308: No. 41, Recitativo. Da la virtute, e dal valor di Dafne (Apollo) (01:11)
16. Raffaele Pe, Zefiro & Alfredo Bernardini – Dafne in lauro, K308: No. 42, Aria. Questa fronda che circonda (Apollo) (04:24)
17. Zefiro & Alfredo Bernardini – Dafne in lauro, K308: No. 43, Coro. Bei Lauri, crescete (04:03)

foobar2000 1.4.1 / Dynamic Range Meter 1.1.1
log date: 2021-06-23 18:19:27

––––––––––––––––––––––––––––––––––––––––
Analyzed: Zefiro & Alfredo Bernardini / Fux: Dafne in lauro
––––––––––––––––––––––––––––––––––––––––

DR Peak RMS Duration Track
––––––––––––––––––––––––––––––––––––––––
DR13 -3.34 dB -21.21 dB 4:30 01-Fux: Dafne in lauro, K308: No. 1, Sinfonia
DR12 -5.26 dB -25.08 dB 1:08 02-Fux: Dafne in lauro, K308: No. 2, Recitativo. Dafne, se mai ti cinse (Diana)
DR13 -5.84 dB -23.08 dB 3:03 03-Fux: Dafne in lauro, K308: No. 3, Aria. Perde il tempo, e perde il core (Diana)
DR14 -7.80 dB -25.64 dB 1:08 04-Fux: Dafne in lauro, K308: No. 4, Recitativo. Chi d’Amor sa le frodi (Dafne)
DR13 -6.70 dB -22.41 dB 3:04 05-Fux: Dafne in lauro, K308: No. 5, Aria. Io so che tanto piace (Dafne)
DR13 -2.89 dB -21.71 dB 1:32 06-Fux: Dafne in lauro, K308: No. 6, Recitativo accompagnato. Udite, ma tacete (Amore)
DR12 -3.64 dB -22.43 dB 2:32 07-Fux: Dafne in lauro, K308: No. 7, Aria. Non v’è cor che del mio foco (Amore)
DR14 -10.24 dB -27.49 dB 1:42 08-Fux: Dafne in lauro, K308: No. 8, Recitativo. Ben ti vanti. Ad Apollo (Mercurio, Amore)
DR15 -3.07 dB -23.11 dB 3:20 09-Fux: Dafne in lauro, K308: No. 9, Aria. Non è il sol che col raggio vitale (Mercurio)
DR14 -5.56 dB -25.36 dB 2:10 10-Fux: Dafne in lauro, K308: No. 10, Recitativo. Coronatemi l’arco, o vaghi fiori (Apollo, Amore)
DR15 -0.09 dB -20.96 dB 4:11 11-Fux: Dafne in lauro, K308: No. 11, Aria. Lusingato (Apollo)
DR13 -4.74 dB -25.19 dB 1:31 12-Fux: Dafne in lauro, K308: No. 12, Recitativo. D’Amor tanto nemico? (Amore, Apollo, Diana)
DR15 -0.32 dB -19.84 dB 2:23 13-Fux: Dafne in lauro, K308: No. 13, Aria. Sappia il monte, il colle, il piano (Diana)
DR13 -1.51 dB -17.54 dB 2:09 14-Fux: Dafne in lauro, K308: No. 14, Coro di Ninfe, e di Pastori. Da Cintia a le piante
DR16 -2.81 dB -25.96 dB 3:41 15-Fux: Dafne in lauro, K308: No. 15, Recitativo. Dafne, tu che sì fida (Diana, Dafne, Apollo, Amore)
DR15 -1.17 dB -23.30 dB 5:40 16-Fux: Dafne in lauro, K308: No. 16, Aria. Ferma, o cara, o se tu parti (Apollo)
DR12 -1.91 dB -21.99 dB 0:38 17-Fux: Dafne in lauro, K308: No. 17, Recitativo. Lascia, lascia il mio velo (Dafne, Apollo)
DR13 -0.95 dB -19.88 dB 3:06 18-Fux: Dafne in lauro, K308: No. 18, Aria. Serba il tuo cor per te (Dafne)
DR15 -4.15 dB -23.97 dB 3:25 19-Fux: Dafne in lauro, K308: No. 19, Recitativo. Parte la bella, e seco (Apollo, Amore, Mercurio)
DR13 -2.67 dB -20.35 dB 4:49 20-Fux: Dafne in lauro, K308: No. 20, Aria. Qual si nutrisca il fior con le rugiade (Mercurio)
DR14 -5.08 dB -24.72 dB 1:00 21-Fux: Dafne in lauro, K308: No. 21, Recitativo. E tu perciò lasciasti (Diana, Dafne)
DR14 -3.00 dB -24.86 dB 3:40 22-Fux: Dafne in lauro, K308: No. 22, Aria. Fan gli amanti come fa (Diana)
DR12 -3.03 dB -23.07 dB 0:53 23-Fux: Dafne in lauro, K308: No. 23, Recitativo. Per te, per l’altre Dive, al di cui petto (Dafne)
DR14 -2.18 dB -21.97 dB 3:46 24-Fux: Dafne in lauro, K308: No. 24, Aria. Va prigioniero (Dafne)
DR11 -7.05 dB -24.07 dB 0:30 25-Fux: Dafne in lauro, K308: No. 25, Recitativo. Dunque Amor sì paventi (Diana, Dafne)
DR15 -1.40 dB -20.99 dB 5:42 26-Fux: Dafne in lauro, K308: No. 26, Duetto. Non v’è pace, non v’è calma (Diana, Dafne)
DR14 -4.46 dB -24.80 dB 2:02 27-Fux: Dafne in lauro, K308: No. 27, Recitativo. Ahi! Qual pena è l’amor privo di speme! (Apollo, Amore)
DR14 -3.28 dB -21.74 dB 2:28 28-Fux: Dafne in lauro, K308: No. 28, Aria. In quel volto di gigli, e di rose (Apollo)
DR13 -4.12 dB -24.38 dB 1:08 29-Fux: Dafne in lauro, K308: No. 29, Recitativo. Apollo ancor vaneggia? (Mercurio, Apollo)
DR14 -1.59 dB -19.51 dB 3:34 30-Fux: Dafne in lauro, K308: No. 30, Aria. A l’or ch’è più agitato (Mercurio)
DR15 -1.78 dB -23.91 dB 2:21 31-Fux: Dafne in lauro, K308: No. 31, Recitativo. Or va’. Richiama, o Dafne (Diana, Apollo, Dafne)
DR16 -2.42 dB -24.13 dB 2:22 32-Fux: Dafne in lauro, K308: No. 32, Duetto. Nel pensier di sempre amarti (Apollo, Dafne)
DR13 -4.39 dB -24.55 dB 1:29 33-Fux: Dafne in lauro, K308: No. 33, Recitativo. Questo, Diana, è ’l cenno (Mercurio, Diana, Amore)
DR14 -0.02 dB -18.50 dB 3:37 34-Fux: Dafne in lauro, K308: No. 34, Coro. O beata ventura! – Vieni con nuovi rai
DR12 -6.05 dB -25.45 dB 1:01 35-Fux: Dafne in lauro, K308: No. 35, Recitativo. Regga chi vuol del dì lucente il corso (Apollo, Diana, Amore)
DR13 -3.68 dB -21.18 dB 1:53 36-Fux: Dafne in lauro, K308: No. 36, Aria. Io so con cento frodi (Amore)
DR12 -10.91 dB -27.81 dB 0:35 37-Fux: Dafne in lauro, K308: No. 37, Recitativo. Se dunque a la virtute (Diana)
DR14 -1.77 dB -20.41 dB 4:13 38-Fux: Dafne in lauro, K308: No. 38, Aria. Ciaccona. Il voler vincer Amore (Diana)
DR15 -1.29 dB -25.55 dB 2:24 39-Fux: Dafne in lauro, K308: No. 39, Recitativo. Vincer non so né voglio (Apollo, Dafne)
DR16 -4.16 dB -28.16 dB 8:12 40-Fux: Dafne in lauro, K308: No. 40, Aria. Lascio d’esser Ninfa, sì (Dafne)
DR13 -11.10 dB -27.84 dB 1:11 41-Fux: Dafne in lauro, K308: No. 41, Recitativo. Da la virtute, e dal valor di Dafne (Apollo)
DR14 -2.86 dB -23.06 dB 4:24 42-Fux: Dafne in lauro, K308: No. 42, Aria. Questa fronda che circonda (Apollo)
DR12 -0.80 dB -18.24 dB 4:04 43-Fux: Dafne in lauro, K308: No. 43, Coro. Bei Lauri, crescete
––––––––––––––––––––––––––––––––––––––––

Number of tracks: 43
Official DR value: DR14

Samplerate: 48000 Hz
Channels: 2
Bits per sample: 24
Bitrate: 1550 kbps
Codec: FLAC
================================================================================


Thanks to the Original customer!