Tags
Language
Tags

36 & Awakened Souls - The Other Side of Darkness (Expanded Edition) (2021) [Official Digital Download]

Posted By:
36 & Awakened Souls - The Other Side of Darkness (Expanded Edition) (2021) [Official Digital Download]

36 & Awakened Souls - The Other Side of Darkness (Expanded Edition) (2021)
FLAC (tracks) 24-bit/44,1 kHz | Front Cover | Time - 131:45 minutes | 1,35 GB
Electronic, Ambient | Label: Past Inside the Present, Official Digital Download

The Other Side of Darkness’ is a collaborative album from 36 and awakened souls. The project began with James (awakened souls) sending Dennis (36) a few bass loops he made and quickly evolved into a collaborative project with Cynthia (awakened souls) as well.

In addition to the main album, the artists also wrote their own accompanying versions of the entire The Other Side of Darkness album, essentially turning the main album into three unique interpretations. All tracks are collected into one extended long-play for the digital version.

The 'After Dark" versions by 36 revisions The Other Side of Darkness into a rain-drenched neo-noir, reflecting on the bleak backdrop of a difficult year. It is a highly emotional, deeply personal work, which was written to be played continuously from beginning to end.

The ‘Other’ versions by awakened souls uncover the numerous sides of Gemini husband/wife duo, James and Cynthia. Ranging from deep drone, dub and acid to compositional ambient and shoegaze, this album traverses many moods. James revives his late 90’s electronic moniker, Influx for two dance-floor focused versions while Cynthia debuts her solo project, 'marine eyes' for three lush and emotionally raw versions.

Tracklist:
1. Take Me By The Hand (09:42)
2. Spinning Around (05:11)
3. To Start Again (04:28)
4. Shelter (03:09)
5. Ripples (03:57)
6. Past Self (05:12)
7. Guide Me Home (One Misstep) (04:53)
8. Need Your Light (11:33)
9. Take Me By The Hand (36 After Dark Version) (03:47)
10. Spinning Around (36 After Dark Version) (04:33)
11. To Start Again (36 After Dark Version) (03:59)
12. Shelter (36 After Dark Version) (04:09)
13. Ripples (36 After Dark Version) (05:25)
14. Past Self (36 After Dark Version) (06:26)
15. Guide Me Home (One Misstep) (36 After Dark Version) (05:43)
16. Need Your Light (36 After Dark Version) (16:19)
17. Take Me By The Hand (awakened souls - Acid Dream Version) (04:23)
18. Spinning Around (awakened souls - Solo Bass Version) (04:17)
19. To Start Again (awakened souls- marine eyes Version) (04:20)
20. Shelter (awakened souls - Influx Version) (04:00)
21. Ripples (awakened souls - marine eyes Version) (04:22)
22. Past Self (awakened souls - marine eyes Version) (03:32)
23. Guide Me Home (awakened souls - Shoegaze Version) (03:34)
24. Need Your Light (awakened souls - Influx Dub Version) (04:51)

foobar2000 1.4.1 / Dynamic Range Meter 1.1.1
log date: 2021-02-18 14:13:46

––––––––––––––––––––––––––––––––––––––––
Analyzed: 36 & Awakened Souls / The Other Side of Darkness
––––––––––––––––––––––––––––––––––––––––

DR Peak RMS Duration Track
––––––––––––––––––––––––––––––––––––––––
DR9 -0.38 dB -11.32 dB 9:42 01-Take Me by the Hand
DR6 -0.38 dB -8.01 dB 5:11 02-Spinning Around
DR7 -0.38 dB -10.93 dB 4:28 03-To Start Again
DR8 -0.38 dB -11.08 dB 3:09 04-Shelter
DR9 -0.38 dB -11.10 dB 3:57 05-Ripples
DR6 -0.38 dB -9.31 dB 5:12 06-Past Self
DR7 -0.38 dB -9.20 dB 4:53 07-Guide Me Home (One Misstep)
DR5 -0.38 dB -8.52 dB 11:33 08-Need Your Light
DR8 -0.34 dB -10.05 dB 3:47 09-Take Me by the Hand (36 After Dark Version)
DR7 -0.34 dB -10.22 dB 4:33 10-Spinning Around (36 After Dark Version)
DR6 -0.34 dB -9.12 dB 3:59 11-To Start Again (36 After Dark Version)
DR8 -0.34 dB -11.00 dB 4:09 12-Shelter (36 After Dark Version)
DR8 -0.33 dB -10.50 dB 5:25 13-Ripples (36 After Dark Version)
DR7 -0.34 dB -9.04 dB 6:26 14-Past Self (36 After Dark Version)
DR7 -0.34 dB -8.63 dB 5:43 15-Guide Me Home (One Misstep) (36 After Dark Version)
DR8 -0.34 dB -10.02 dB 16:19 16-Need Your Light (36 After Dark Version)
DR7 -0.32 dB -10.29 dB 4:23 17-Take Me by the Hand (Awakened Souls Acid Dream Version)
DR7 -0.03 dB -10.05 dB 4:17 18-Spinning Around (Awakened Souls Solo Bass Version)
DR7 -0.20 dB -8.59 dB 4:20 19-To Start Again (Awakened Souls - Marine Eyes Version)
DR7 -0.10 dB -9.21 dB 4:00 20-Shelter (Awakened Souls - Influx Version)
DR6 -0.18 dB -8.34 dB 4:22 21-Ripples (Awakened Souls - Marine Eyes Version)
DR8 -0.18 dB -11.12 dB 3:32 22-Past Self (Awakened Souls - Marine Eyes Version)
DR7 -0.10 dB -8.69 dB 3:34 23-Guide Me Home (Awakened Souls Shoegaze Version)
DR7 -0.20 dB -9.53 dB 4:51 24-Need Your Light (Awakened Souls - Influx Dub Version)
––––––––––––––––––––––––––––––––––––––––

Number of tracks: 24
Official DR value: DR7

Samplerate: 44100 Hz
Channels: 2
Bits per sample: 24
Bitrate: 1590 kbps
Codec: FLAC
================================================================================


Thanks to the Original customer!