Bear McCreary - Blumhouse's Fantasy Island (Original Motion Picture Soundtrack) (2020) [Official Digital Download]

Posted By: Pisulik
Bear McCreary - Blumhouse's Fantasy Island (Original Motion Picture Soundtrack) (2020) [Official Digital Download]

Bear McCreary - Blumhouse's Fantasy Island (Original Motion Picture Soundtrack) (2020)
FLAC (tracks) 24-bit/48 kHz | Time - 71:10 minutes | 736 MB
Studio Master, Official Digital Download | Artwork: Front cover

Somewhere, someone has been desperately hoping that Hollywood would get around to making a movie adaptation of the late-’70s TV show “Fantasy Island.” Meanwhile, it would seem that the rest of us that is, the filmgoing public are just extras in an elaborate cautionary tale designed to teach that person a lesson. The point being: Be careful what you wish for; such corny old TV series are better suited for reruns than for reboots. As suave yet sinister host Mr. Roarke warns the half-dozen expendable douchebags er, guests who’ve traveled to this enchanted retreat to live out their wildest dreams, “Fantasies rarely play out as you would expect.”

Tracklist:

01. Bear McCreary - You Are One of My Guests (1:38)
02. Bear McCreary - Arrival (3:46)
03. Bear McCreary - Regret is a Disease (2:26)
04. Bear McCreary - Your Fantasy Begins Now (5:47)
05. Bear McCreary - No Soldier (5:45)
06. Bear McCreary - The Life You Wanted (2:52)
07. Bear McCreary - Panic Room (2:31)
08. Bear McCreary - Dog Tags (3:26)
09. Bear McCreary - Brax Makes His Move (2:44)
10. Bear McCreary - You Deserve It (2:04)
11. Bear McCreary - The Heart of the Island (4:39)
12. Bear McCreary - Fighting Fire (4:28)
13. Bear McCreary - A Devil, a Pig and a Clown (6:36)
14. Bear McCreary - Not My Fantasy (2:59)
15. Bear McCreary - The Island’s Secret (3:16)
16. Bear McCreary - In the Cave (4:25)
17. Bear McCreary - Hate in My Heart (3:05)
18. Bear McCreary - Every Guest Gets a Fantasy (6:02)
19. Bear McCreary - What Happens Now (2:41)

foobar2000 1.3.7 / Dynamic Range Meter 1.1.1
log date: 2020-02-17 04:50:54

––––––––––––––––––––––––––––––––––––––––
Analyzed: Bear McCreary / Blumhouse's Fantasy Island (Original Motion Picture Soundtrack)
––––––––––––––––––––––––––––––––––––––––

DR Peak RMS Duration Track
––––––––––––––––––––––––––––––––––––––––
DR9 -0.07 dB -13.83 dB 1:38 01-You Are One of My Guests
DR12 -0.02 dB -17.84 dB 3:46 02-Arrival
DR12 -0.01 dB -18.97 dB 2:26 03-Regret is a Disease
DR14 0.00 dB -19.97 dB 5:47 04-Your Fantasy Begins Now
DR12 -0.03 dB -16.79 dB 5:45 05-No Soldier
DR13 -2.98 dB -21.63 dB 2:52 06-The Life You Wanted
DR10 0.00 dB -14.40 dB 2:31 07-Panic Room
DR12 -0.09 dB -18.98 dB 3:26 08-Dog Tags
DR11 -0.09 dB -16.99 dB 2:44 09-Brax Makes His Move
DR13 -0.19 dB -21.78 dB 2:04 10-You Deserve It
DR13 -0.01 dB -17.81 dB 4:39 11-The Heart of the Island
DR12 0.00 dB -16.39 dB 4:28 12-Fighting Fire
DR11 0.00 dB -15.88 dB 6:36 13-A Devil, a Pig and a Clown
DR13 -0.01 dB -18.55 dB 2:59 14-Not My Fantasy
DR9 0.00 dB -13.96 dB 3:16 15-The Island’s Secret
DR12 -0.05 dB -17.36 dB 4:25 16-In the Cave
DR11 -0.02 dB -15.76 dB 3:05 17-Hate in My Heart
DR13 0.00 dB -19.09 dB 6:02 18-Every Guest Gets a Fantasy
DR11 -0.17 dB -17.96 dB 2:41 19-What Happens Now
––––––––––––––––––––––––––––––––––––––––

Number of tracks: 19
Official DR value: DR12

Samplerate: 48000 Hz
Channels: 2
Bits per sample: 24
Bitrate: 1244 kbps
Codec: FLAC
================================================================================


All thanks go to the original releaser