Bee Gees - Spirits Having Flown (1979) [LP, DSD128]

Posted By: Discograf_man
Bee Gees - Spirits Having Flown (1979) [LP, DSD128]

Bee Gees - Spirits Having Flown (1979) [LP, DSD128]
Synth-pop, Disco, Soft Rock | DSD128 (*.dsf, tracks), 1-bit/5.64 MHz
Run Time: 00:45:26 | 3.77 GB + 5% Recovery
Label: RSO Records | Release Year: 1979

Spirits Having Flown is the fifteenth album released by the Bee Gees. It was the group's first album after their collaboration on the Saturday Night Fever soundtrack. The album's first three tracks were released as singles and all reached No. 1 in the US, giving the Bee Gees an unbroken run of six US chart-toppers in a one-year period and equaling a feat shared by Bing Crosby, Elvis Presley, and The Beatles. It was the first Bee Gees album to make the UK top 40 in ten years (not counting the soundtrack for Saturday Night Fever), as well as being their first and only UK No. 1 album.
Brothers Barry, Maurice, and Robin Gibb made musical history for close to four decades with their magnificent vocal harmonies and ever-evolving styles. Masters of orchestral pop, blue-eyed soul and R&B, dazzling dance grooves, and disco fever alike-as well as uniquely blended hybrids of all these genres and more-the Bee Gees delivered album classics and top chart hits throughout their enduring career.
Tracklist:

A1 Tragedy
A2 Too Much Heaven
A3 Love You Inside Out
A4 Reaching Out
A5 Spirits (Having Flown)

B1 Search, Find
B2 Stop (Think Again)
B3 Living Together
B4 I'm Satisfied
B5 Until

foobar2000 1.4 / Dynamic Range Meter 1.1.1
log date: 2019-07-11 13:15:56

––––––––––––––––––––––––––––––––––––––––
Analyzed: Bee Gees / Spirits Having Flown
––––––––––––––––––––––––––––––––––––––––

DR Peak RMS Duration Track
––––––––––––––––––––––––––––––––––––––––
DR13 -7.00 dB -22.21 dB 5:04 ?-A1.Tragedy
DR12 -7.09 dB -22.99 dB 4:58 ?-A2.Too Much Heaven
DR13 -7.31 dB -23.53 dB 4:12 ?-A3.Love You Inside Out
DR12 -8.36 dB -24.00 dB 4:06 ?-A4.Reaching Out
DR13 -7.48 dB -25.06 dB 5:21 ?-A5.Spirits (Having Flown)
DR13 -6.64 dB -22.17 dB 4:16 ?-B1.Search, Find
DR14 -6.08 dB -23.64 dB 6:41 ?-B2.Stop (Think Again)
DR14 -6.85 dB -23.72 dB 4:23 ?-B3.Living Together
DR14 -7.68 dB -24.91 dB 3:58 ?-B4.I'm Satisfied
DR13 -10.87 dB -28.37 dB 2:28 ?-B5.Until
––––––––––––––––––––––––––––––––––––––––

Number of tracks: 10
Official DR value: DR13

Samplerate: 5644800 Hz / PCM Samplerate: 88200 Hz
Channels: 2
Bits per sample: 1
Bitrate: 11290 kbps
Codec: DSD128
================================================================================