Tags
Language
Tags

Bess of Bedlam - Dance Until the Crimes End (2022)

Posted By: v3122
Bess of Bedlam - Dance Until the Crimes End (2022)

Bess of Bedlam - Dance Until the Crimes End (2022)
FLAC (Tracks) 24-bit/44.1 kHz | Official Digital Download | Time: 00:43:24
Indie Rock | Label: Dur et Doux | ~ 470 Mb

Less acoustic and intimate than the first album Folly Tales, released in 2018 on Another Record (FR) et Outré (UK), Dance until the crimes end shifts towards a capricious, fanciful and sophisticated pop, sometimes coloured with psychedelic folk. A songwriting infuenced by Anglo-Saxon music (Kate Bush, Robert Wyatt, Virginia Astley, Joni Mitchell), including lyrics which express a taste for English poetry.

Passing through this extraordinary and tormented trip, you particularly come across feminist activists against nuclear war in the 80’s, three women whose destinies untertwine, a russian anarchist woman in the 20’s, a mother and her daughter endlessly struggling… All these adventures sublimated by winding melodies and harmonic surprises, to which Bess of Bedlam alone holds the key.
Bess of Bedlam - Dance Until the Crimes End (2022):

Tracklist:

01 - Greenham Women (00:03:06)
02 - Willie (00:03:41)
03 - The White Sea (00:04:24)
04 - Houses on Sand (00:05:25)
05 - Milly and Pinky (00:02:49)
06 - What Can We Wise Women Do (00:04:12)
07 - Steel Wings (00:04:14)
08 - Red Seaweeds (00:03:35)
09 - Left the Dreams Behind (00:04:17)
10 - Oddly Old (00:03:41)
11 - Jellyfish in the Sky (00:03:55)

foobar2000 1.4.2 / Dynamic Range Meter 1.1.1
log date: 2022-05-23 20:23:07

––––––––––––––––––––––––––––––––––––––––
Analyzed: Bess of Bedlam / Dance Until the Crimes End
––––––––––––––––––––––––––––––––––––––––

DR Peak RMS Duration Track
––––––––––––––––––––––––––––––––––––––––
DR8 -0.05 dB -9.54 dB 3:06 01-Greenham Women
DR8 -0.04 dB -10.13 dB 3:42 02-Willie
DR5 -0.05 dB -7.48 dB 4:25 03-The White Sea
DR7 -0.04 dB -8.24 dB 5:26 04-Houses on Sand
DR9 -0.06 dB -10.56 dB 2:49 05-Milly and Pinky
DR6 -0.05 dB -8.33 dB 4:12 06-What Can We Wise Women Do
DR7 -0.05 dB -9.47 dB 4:14 07-Steel Wings
DR8 -0.06 dB -9.13 dB 3:36 08-Red Seaweeds
DR8 -0.05 dB -9.29 dB 4:18 09-Left the Dreams Behind
DR8 -0.05 dB -9.94 dB 3:42 10-Oddly Old
DR8 -0.05 dB -10.44 dB 3:55 11-Jellyfish in the Sky
––––––––––––––––––––––––––––––––––––––––

Number of tracks: 11
Official DR value: DR7

Samplerate: 44100 Hz
Channels: 2
Bits per sample: 24
Bitrate: 1473 kbps
Codec: FLAC

All thanks go to the original releaser

Download Bess of Bedlam - Dance Until the Crimes End (2022):