Blackberry Smoke - You Hear Georgia (2021) [Official Digital Download 24/96]

Posted By: pyatak
Blackberry Smoke - You Hear Georgia (2021) [Official Digital Download 24/96]

Blackberry Smoke - You Hear Georgia (2021) [Official Digital Download 24/96]
FLAC (tracks) 24-bit/96 kHz | Front Cover | Time - 40:28 minutes | 880 MB
Country, Country Rock | Label: 3 LEGGED RECORDS, Official Digital Download

Hailed as "the reigning heavyweight champions of Southern rock" (No Depression), Atlanta-based quintet Blackberry Smoke celebrates their 20th anniversary with a magnificent tribute to their home: You Hear Georgia. Produced by Dave Cobb (John Prine, Jason Isbell, Sturgill Simpson), the upcoming album is inspired by and a celebration of the South and all it has to offer. In true Blackberry Smoke fashion, the band masterfully weaves through genre, with everything from Southern Rock anthems about overcoming preconceived notions to life lessons wrapped in heartfelt Americana. And they bring a few friends along for the ride, with guest features from Jamey Johnson and Warren Hayes (The Allman Brothers Band, Gov't Mule). You Hear Georgia is Blackberry Smoke's seventh album, following 2018's critically acclaimed Find A Light - which debuted at #1 on Billboard Country Album Sales and Americana/Folk Album Sales Chart - and its companion acoustic EP The Southern Ground Sessions.

TRACKLIST

1. Blackberry Smoke - Live It Down
2. Blackberry Smoke - You Hear Georgia
3. Blackberry Smoke - Hey Delilah
4. Blackberry Smoke - Ain't the Same
5. Blackberry Smoke - Lonesome for a Livin' (feat. Jamey Johnson)
6. Blackberry Smoke - All Rise Again (feat. Warren Haynes)
7. Blackberry Smoke - Old Enough to Know
8. Blackberry Smoke - Morningside
9. Blackberry Smoke - All over the Road
10. Blackberry Smoke - Old Scarecrow

foobar2000 1.6.2 / Dynamic Range Meter 1.1.1
log date: 2021-05-27 23:24:37

––––––––––––––––––––––––––––––––––––––––
Analyzed: Blackberry Smoke / You Hear Georgia
––––––––––––––––––––––––––––––––––––––––

DR Peak RMS Duration Track
––––––––––––––––––––––––––––––––––––––––
DR5 -1.30 dB -8.46 dB 4:07 01-Live It Down
DR6 -1.30 dB -8.25 dB 4:06 02-You Hear Georgia
DR6 -1.30 dB -8.81 dB 3:54 03-Hey Delilah
DR6 -1.30 dB -7.93 dB 4:21 04-Ain't the Same
DR6 -1.30 dB -8.71 dB 4:28 05-Lonesome for a Livin' (feat. Jamey Johnson)
DR5 -1.30 dB -8.25 dB 4:13 06-All Rise Again (feat. Warren Haynes)
DR5 -1.30 dB -8.50 dB 3:29 07-Old Enough to Know
DR5 -1.30 dB -7.96 dB 4:25 08-Morningside
DR6 -1.30 dB -8.46 dB 3:48 09-All over the Road
DR6 -1.30 dB -9.91 dB 3:37 10-Old Scarecrow
––––––––––––––––––––––––––––––––––––––––

Number of tracks: 10
Official DR value: DR6

Samplerate: 96000 Hz
Channels: 2
Bits per sample: 24
Bitrate: 2935 kbps
Codec: FLAC
================================================================================



Thanks to the Original customer.