Blind Ego - Preaching to the Choir (2020) [Official Digital Download]

Posted By: Pisulik
Blind Ego - Preaching to the Choir (2020) [Official Digital Download]

Blind Ego - Preaching to the Choir (2020)
FLAC (tracks) 24-bit/44.1 kHz | Time - 48:26 minutes | 578 MB
Studio Master, Official Digital Download | Artwork: Front cover

Looking back to the first album in 2007, the sound and songwriting have taken enormous leaps with every album. All striving, pushing, excelling to capture the true essence and sound Kalle Wallner has in mind at that time. His growth as a musician and as a human being have now found their outlet and climax in 'Preaching to the Choir'. While almost all of the material still stems from Kalle, the input from the other members - Scott Balaban (vocals), Julian Kellner (guitar), Sebastian Harnack (bass) und Michael Christoph (drums) - is apparent. As congruent styles mix, new sides to the music emerge: an uncompromising straight-forwardness, a chest pounding, uncontainable wild strength counterbalancing the fine sense of melancholy and contemplation. They're a rock band with all guns blazing, yet grown-up enough to take their finger off the trigger at just the right moments. There is no loud without silent, no hard without soft.

Tracklist:

01. Massive
02. Preaching to the Choir
03. Burning Alive
04. Line in the Sand
05. Dark Paradise
06. In Exile
07. Heading for the Stars
08. Broken Land
09. The Pulse

foobar2000 1.3.7 / Dynamic Range Meter 1.1.1
log date: 2020-02-13 23:18:11

––––––––––––––––––––––––––––––––––––––––
Analyzed: Blind Ego / Preaching to the Choir
––––––––––––––––––––––––––––––––––––––––

DR Peak RMS Duration Track
––––––––––––––––––––––––––––––––––––––––
DR4 -0.32 dB -5.36 dB 5:25 01-Massive
DR5 -0.32 dB -6.28 dB 6:06 02-Preaching to the Choir
DR4 -0.32 dB -5.10 dB 4:32 03-Burning Alive
DR3 -0.32 dB -5.52 dB 4:09 04-Line in the Sand
DR4 -0.32 dB -6.95 dB 5:15 05-Dark Paradise
DR4 -0.32 dB -5.66 dB 4:08 06-In Exile
DR4 -0.32 dB -6.09 dB 5:34 07-Heading for the Stars
DR4 -0.32 dB -5.23 dB 4:43 08-Broken Land
DR6 -0.32 dB -9.23 dB 8:40 09-The Pulse
––––––––––––––––––––––––––––––––––––––––

Number of tracks: 9
Official DR value: DR4

Samplerate: 44100 Hz
Channels: 2
Bits per sample: 24
Bitrate: 1454 kbps
Codec: FLAC
================================================================================


All thanks go to the original releaser