Tags
Language
Tags

Brian Blade - Perceptual (2000/2014) [Official Digital Download 24/192]

Posted By: pyatak
Brian Blade - Perceptual (2000/2014) [Official Digital Download 24/192]

Brian Blade - Perceptual (2000/2014) [Official Digital Download 24/192]
FLAC (tracks) 24-bit/192kHz | Front Cover | Time - 54:03 minutes | 1,9 GB
Jazz | Label: Blue Note Records, Official Digital Download

"Each tune takes the listener on an adventure, unfolding gradually and gracefully as Blade mirrors the shifting dynamic textures with his inimitable melodic touch …"
- JazzTimes.com

"… very likable and intoxicating brew that benefits from a collective sound … with technical prowess of obvious proportions, Blade is equally reticent about flashy drum displays …"
- All About Jazz

On this second album with his Fellowship, Brian Blade further displays his skills as a bandleader and composer as well as a drummer. Blade composes songs as if he were painting a broad mural, sculpting landscapes of sound, orchestral in feel and truly breathtaking in grandeur. His own playing ties the septet together in ways that recall the best progressive jazz of the 1960s and fusion of the 1970s. The subjects of songs are diverse: childhood memories of fishing the Louisiana bayous, global ethnic strife and the violent world that children must face every day. For Perceptual, Blade even handled production duties himself. Daniel Lanois plays spooky fuzz guitar on one track and former Blade employer Joni Mitchell adds a willowy vocal on another.

TRACKLIST

1. Brian Blade Fellowship - Perceptual (Remastered 2014)
2. Middle Way Music - Evinrude-Fifty (Trembling) (Remastered 2014)
3. Brian Blade Fellowship - Reconciliation (Remastered 2014)
4. Brian Blade Fellowship - Crooked Creek (Remastered 2014)
5. Middle Way Music - Patron Saint Of Girls (Remastered 2014)
6. Brian Blade - The Sunday Boys (Improvisation) (Remastered 2014)
7. Middle Way Music - Variations Of A Bloodline: From The Same Blood / Fellowship (Like Brothers) / Mustangs (Class Of 1988) (Remastered 2014)
8. Middle Way Music - Steadfast (Remastered 2014)
9. Brian Blade - Trembling (Remastered 2014)

foobar2000 1.6.2 / Dynamic Range Meter 1.1.1
log date: 2021-06-07 08:34:56

––––––––––––––––––––––––––––––––––––––––
Analyzed: Brian Blade Fellowship / Perceptual (1-3)
Brian Blade / Perceptual (4-5)
Middle Way Music / Perceptual (6-9)
––––––––––––––––––––––––––––––––––––––––

DR Peak RMS Duration Track
––––––––––––––––––––––––––––––––––––––––
DR11 -0.73 dB -16.84 dB 6:30 01-Perceptual (Remastered 2014)
DR12 -0.23 dB -16.85 dB 6:45 03-Reconciliation (Remastered 2014)
DR10 -0.90 dB -15.12 dB 9:12 04-Crooked Creek (Remastered 2014)
DR10 -6.15 dB -21.44 dB 1:12 06-The Sunday Boys (Improvisation) (Remastered 2014)
DR15 -2.82 dB -23.12 dB 2:16 09-Trembling (Remastered 2014)
DR10 -1.37 dB -16.60 dB 7:58 02-Evinrude-Fifty (Trembling) (Remastered 2014)
DR12 -0.80 dB -17.23 dB 2:43 05-Patron Saint Of Girls (Remastered 2014)
DR11 -1.40 dB -17.16 dB 9:13 07-Variations Of A Bloodline: From The Same Blood / Fellowship (Like Brothers) / Mustangs (Class Of 1988) (Remastered 2014)
DR10 -0.76 dB -15.36 dB 8:16 08-Steadfast (Remastered 2014)
––––––––––––––––––––––––––––––––––––––––

Number of tracks: 9
Official DR value: DR11

Samplerate: 192000 Hz
Channels: 2
Bits per sample: 24
Bitrate: 5095 kbps
Codec: FLAC
================================================================================



Thanks to the Original customer.