Tags
Language
Tags

Cannons - Fever Dream (2022)

Posted By: v3122
Cannons - Fever Dream (2022)

Cannons - Fever Dream (2022)
FLAC (Tracks) 24-bit/44.1 kHz | Official Digital Download | Time: 00:38:23
Indie Pop, Electronic | Columbia | ~ 465 Mb

Cannons create blissed-out dream pop that’s indebted both ’80s era synthwave, and Drive‘s cinematic, neon-soaked soundtrack, equally riveting as it is relaxing. Their recent success definitely comes as a surprise to the band, which is comprised of singer Michelle Joy and multi-instrumentalists Paul Davis and Ryan Clapham, but they’re mostly feeling blessed that they were allowed to quit their day jobs after signing with Columbia Records in 2020.

“To be able to make this our full-time job is absolutely our dream,” Joy tells Consequence over Zoom. “It was super, super surreal to have such success over the time period that we have had.”

The cinematic flair of Cannons’ sound comes from a couple inspirations points — of course, all three members share a love of film and the stylized sonic environments that come with it. But Joy and Davis find that the best compliment they can get is how their music can perfectly soundtrack a night drive through city lights. Songs like “Hurricane,” and the gorgeous “Tunnel of You” are active, widescreen trips, evoking both the desert, the beach, and every California vibe in between.
Cannons - Fever Dream (2022):

Tracklist:

01. Come Alive
02. Hurricane
03. Strangers
04. Tunnel of You
05. Bad Dream
06. Ruthless
07. Only You
08. Goodbye
09. Purple Sun
10. Afterglow
11. Lightning

Michelle Joy, vocals
Paul Davis, bass
Ryan Clapham, guitar


foobar2000 1.6.6 / Dynamic Range Meter 1.1.1
log date: 2022-03-27 07:29:38

––––––––––––––––––––––––––––––––––––––––
Analyzed: Cannons / Fever Dream
––––––––––––––––––––––––––––––––––––––––

DR Peak RMS Duration Track
––––––––––––––––––––––––––––––––––––––––
DR5 -0.23 dB -6.69 dB 3:22 01-Come Alive
DR7 -0.28 dB -8.44 dB 3:01 02-Hurricane
DR7 -0.59 dB -9.02 dB 3:13 03-Strangers
DR7 -0.24 dB -8.11 dB 4:23 04-Tunnel of You
DR6 -0.13 dB -6.66 dB 3:23 05-Bad Dream
DR6 -0.41 dB -6.98 dB 3:25 06-Ruthless
DR5 -3.81 dB -9.60 dB 3:22 07-Only You
DR7 -0.22 dB -7.89 dB 4:23 08-Goodbye
DR5 -0.60 dB -6.71 dB 4:02 09-Purple Sun
DR7 0.00 dB -7.98 dB 3:20 10-Afterglow
DR6 -0.53 dB -8.45 dB 2:35 11-Lightning
––––––––––––––––––––––––––––––––––––––––

Number of tracks: 11
Official DR value: DR6
Samplerate: 44100 Hz
Channels: 2
Bits per sample: 24
Bitrate: 1583 kbps
Codec: FLAC

All thanks go to the original releaser

Download Cannons - Fever Dream (2022):