Christian Mcbride - The Movement Revisited: A Musical Portrait Of Four Icons (2020) [Official Digital Download 24/96]

Posted By: SERTiL
Christian Mcbride - The Movement Revisited: A Musical Portrait Of Four Icons (2020) [Official Digital Download 24/96]

Christian Mcbride - The Movement Revisited: A Musical Portrait Of Four Icons (2020)
FLAC (tracks) 24-bit/96 kHz | Time - 64:43 minutes | 1.31 GB
Studio Master, Official Digital Download | Artwork: Front Cover

The Movement, Revisited: A Musical Portrait of Four Cultural Icons is culminating documentation of a richly inspired piece - lauding four key figures of the Civil Rights Movement: Rev. Dr. Martin Luther King, Malcolm X, Rosa Parks and Muhammad Ali. Marshalling his ever-sharpening skills as a composer, arranger, conductor, musician and lyricist, McBride has created a historically and culturally illuminating five-part suite for an 18-piece big band, chorus and narrators that places the motivating forces as well as the goals of the Civil Rights Movement within a powerfully relevant artistic context. It is a one-from-the-heart project McBride was, apparently, destined to undertake. This recording of The Movement, Revisited marks the addition of a fifth movement, "Apotheosis," which acknowledges the election of Barack Obama as the first African American President of the United States.

Tracklist:
1. Overture/The Movement Revisited 10:43
2. Sister Rosa - Prologue 3:20
3. Sister Rosa 6:25
4. Rosa Introduces Malcolm 3:08
5. Brother Malcolm - Prologue 2:49
6. Brother Malcolm 7:35
7. Malcolm Introduces Ali 1:03
8. Ali Speaks 2:42
9. Rumble In The Jungle 6:00
10. Rosa Introduces MLK 0:40
11. Soldiers (I Have a Dream) 5:38
12. A View From The Mountaintop 4:14
13. Apotheosis: November 4th, 2008 10:26

foobar2000 1.3.7 / Dynamic Range Meter 1.1.1
log date: 2020-02-06 01:29:21

––––––––––––––––––––––––––––––––––––––––
Analyzed: Christian McBride / The Movement Revisited: A Musical Portrait of Four Icons
––––––––––––––––––––––––––––––––––––––––

DR Peak RMS Duration Track
––––––––––––––––––––––––––––––––––––––––
DR9 -0.17 dB -12.17 dB 10:44 01-Overture / The Movement Revisited
DR10 -0.42 dB -13.48 dB 3:21 02-Sister Rosa – Prologue
DR10 -0.42 dB -12.56 dB 6:25 03-Sister Rosa
DR11 -0.42 dB -15.29 dB 3:08 04-Rosa Introduces Malcolm
DR12 -0.42 dB -16.74 dB 2:50 05-Brother Malcolm – Prologue
DR9 -0.42 dB -13.12 dB 7:36 06-Brother Malcolm
DR13 -0.42 dB -16.82 dB 1:03 07-Malcolm Introduces Ali
DR12 -0.42 dB -15.01 dB 2:43 08-Ali Speaks
DR8 -0.40 dB -10.69 dB 6:00 09-Rumble in the Jungle
DR14 -2.50 dB -23.03 dB 0:40 10-Rosa Introduces MLK
DR10 -0.42 dB -13.35 dB 5:38 11-Soldiers (I Have a Dream)
DR8 -0.40 dB -10.27 dB 4:14 12-A View from the Mountaintop
DR9 -0.14 dB -13.88 dB 10:27 13-Apotheosis: November 4th, 2008
––––––––––––––––––––––––––––––––––––––––

Number of tracks: 13
Official DR value: DR10

Samplerate: 96000 Hz
Channels: 2
Bits per sample: 24
Bitrate: 2798 kbps
Codec: FLAC
================================================================================


Thanks to the Original customer.