Tags
Language
Tags
March 2023
Su Mo Tu We Th Fr Sa
26 27 28 1 2 3 4
5 6 7 8 9 10 11
12 13 14 15 16 17 18
19 20 21 22 23 24 25
26 27 28 29 30 31 1

Circa Waves - Never Going Under (2023) [Official Digital Download]

Posted By: ciklon5
Circa Waves - Never Going Under (2023) [Official Digital Download]

Circa Waves - Never Going Under (2023) [Official Digital Download]
FLAC (tracks), Lossless [24bit-48kHz] | 34:33 | 447 Mb
Genre: Indie Rock / Label: Lower Third

Never Going Under is the band's highly anticipated fifth record, and the encapsulation of a continued upward trajectory for Circa Waves over the last decade. Becoming one of Britain's most influential and adored guitar bands, the four piece's dedication to constantly developing their sound has seen them secure increasingly high positions in the Official Album Charts, as well as amassing an army of dedicated fans. Speaking about Never Going Under, frontman Kieran Shudall says: "Never Going under speaks to that uniquely modern phenomenon of genuinely not knowing what type of world our kids are going to find themselves in in 30 years. Physically, environmentally, politically we are completely in the unknown. That scares us all but ultimately we know we can never give up on the future because how can you? The songs on the album are written differently from the previous work we've put out. They are written from the perspective of my son and also from my own current experience of the climate today.

Track List:
1. Never Going Under (2:14)
2. Do You Wanna Talk (2:26)
3. Hell On Earth (2:46)
4. Your Ghost (3:05)
5. Carry You Home (3:19)
6. Northern Town (3:48)
7. Electric City (2:41)
8. Want It All Today (2:44)
9. Golden Days (3:50)
10. Hold On (3:49)
11. Living in the Grey (3:55)

foobar2000 1.6.10 / Dynamic Range Meter 1.1.1
log date: 2023-01-11 13:24:52

––––––––––––––––––––––––––––––––––––––––
Analyzed: Circa Waves / Never Going Under
––––––––––––––––––––––––––––––––––––––––

DR Peak RMS Duration Track
––––––––––––––––––––––––––––––––––––––––
DR3 -0.11 dB -4.32 dB 2:14 01-Never Going Under
DR4 -0.01 dB -5.84 dB 2:26 02-Do You Wanna Talk
DR5 -0.11 dB -6.91 dB 2:46 03-Hell On Earth
DR4 -0.11 dB -6.11 dB 3:05 04-Your Ghost
DR3 -0.11 dB -4.73 dB 3:19 05-Carry You Home
DR3 -0.11 dB -6.53 dB 3:48 06-Northern Town
DR4 -0.11 dB -5.49 dB 2:41 07-Electric City
DR5 -0.11 dB -6.59 dB 2:44 08-Want It All Today
DR4 -0.11 dB -5.08 dB 3:50 09-Golden Days
DR4 -0.11 dB -6.23 dB 3:49 10-Hold On
DR4 -0.11 dB -6.42 dB 3:55 11-Living in the Grey
––––––––––––––––––––––––––––––––––––––––

Number of tracks: 11
Official DR value: DR4

Samplerate: 48000 Hz
Channels: 2
Bits per sample: 24
Bitrate: 1692 kbps
Codec: FLAC
================================================================================