Tags
Language
Tags

David Grisman Quintet - Dawgwood (1993/2021)

Posted By: v3122
David Grisman Quintet - Dawgwood (1993/2021)

David Grisman Quintet - Dawgwood (1993/2021)
FLAC (Tracks) 24-bit/96 kHz | Official Digital Download | Time: 01:05:21
Jazz, Americana, Choro | Acoustic Disc | ~ 1.31 Gb

David Grisman's self-named "Dawg" music defies traditional categories, as it is such a unique blend of many influences, including bluegrass, jazz, gypsy music, Latin, and so much more. He's joined by flutist Matt Eakle, percussionist and violinist Joe Craven, bassist Jim Kerwin, and guitarist Rick Montgomery. The veteran mandolinist wrote six of the eight songs, starting with the cheerful opener, which features everyone in turn. The intricate waltz "Dawgmatism" adds an exotic flavor with Craven's violin and Eakle's haunting flute. "Jazzin' (With Joe-Bob)" is a wild masterpiece (later appearing in slightly different form on his compilation DGQ-20 with jazz DJ Al "Jazzbeaux" Collins as "Jazzin' With Jazzbeaux"), with Craven providing percussion on bongos (and vocals with assorted hisses and comments) as well as overdubbing a slashing violin solo. "Steppin' With Stephane" was originally recorded by Grisman with its honoree, jazz violin great Stephane Grappelli. This version is lighter but every bit as swinging. "Bolero de Django," composed by Django Reinhardt, has a definite gypsy air, though Eakle's alto flute gives the piece a more modern flavor. "New Dawg's Rag" is an updated arrangement of an earlier Grisman chart; while the instrumentation has been changed, the impact of this brilliant performance is still pure magic. Throughout this release, Grisman's playing is nothing short of phenomenal. It should come as no surprise that fans of David Grisman should consider this CD an essential purchase.

~ Solo Musica
David Grisman Quintet - Dawgwood (1993/2021):

Tracklist:

1 - Dawgwood
2 - Dawgmatism
3 - Jazzin' (with Joe-Bob)
4 - Sea of Cortez
5 - Steppin' with Stephane
6 - Bolero de Django
7 - Assanhado
8 - New Dawg's Rag
9 - Flatbush Waltz
10 - Janice
11 - Anouman

foobar2000 1.6.8 / Замер динамического диапазона (DR) 1.1.1
Дата отчёта: 2022-03-31 11:58:29

––––––––––––––––––––––––––––––––––––––––
Анализ: David Grisman Quintet / Dawgwood
––––––––––––––––––––––––––––––––––––––––

DR Пики RMS Продолжительность трека
––––––––––––––––––––––––––––––––––––––––
DR12 -0.43 дБ -15.23 дБ 3:28 01-Dawgwood
DR12 -1.09 дБ -16.38 дБ 6:40 02-Dawgmatism
DR12 -0.60 дБ -16.00 дБ 5:36 03-Jazzin' (with Joe-Bob)
DR14 -0.56 дБ -17.35 дБ 6:21 04-Sea of Cortez
DR12 -0.55 дБ -15.91 дБ 6:43 05-Steppin' with Stephane
DR13 -0.52 дБ -16.25 дБ 6:00 06-Bolero de Django
DR11 -0.48 дБ -14.02 дБ 6:18 07-Assanhado
DR12 -0.51 дБ -15.90 дБ 9:04 08-New Dawg's Rag
DR12 -0.42 дБ -14.58 дБ 3:43 09-Flatbush Waltz
DR11 -0.49 дБ -14.42 дБ 5:04 10-Janice
DR13 -0.43 дБ -16.91 дБ 6:29 11-Anouman
––––––––––––––––––––––––––––––––––––––––

Количество треков: 11
Реальные значения DR: DR12

Частота: 96000 Гц
Каналов: 2
Разрядность: 24
Битрейт: 2858 кбит/с
Кодек: FLAC

All thanks go to the original releaser

Download David Grisman Quintet - Dawgwood (1993/2021):