Tags
Language
Tags

David Ianni - Songs of Love, Vol. 1 (2021)

Posted By: v3122
David Ianni - Songs of Love, Vol. 1 (2021)

David Ianni - Songs of Love, Vol. 1 (2021)
FLAC (Tracks) 24-bit/48 kHz | Time: 01:15:28 | 663 Mb
Modern Classical | Label: Musicoratio Records | Official Digital Download | Artwork: Front

~ Very soothing to the soul… Beautiful to listen to if you need to relax and rest for a while… – Paula Jeffrey ~

David Ianni - Songs of Love, Vol. 1 (2021):

Tracklist:

01 - Coming Home (00:02:52)
02 - Solitude (00:02:10)
03 - Within (00:02:15)
04 - Wings of Hope (00:02:53)
05 - Angel Dance (00:03:03)
06 - Reflections (00:01:59)
07 - Summer Nights (00:05:00)
08 - Feathers (00:01:56)
09 - Worship (00:02:54)
10 - Children of Aleppo (00:03:39)
11 - Peaceful (00:02:31)
12 - My Diary (00:02:52)
13 - Healing (00:02:25)
14 - Mercy (00:03:49)
15 - Snowflakes (00:02:28)
16 - Palindrome (00:01:44)
17 - River of Love (00:02:59)
18 - Heartland (00:04:30)
19 - Butterflies (00:02:51)
20 - Lisa (00:05:24)
21 - In Paradisum (00:03:00)
22 - Parallel Worlds (00:03:32)
23 - Amoureux (00:05:08)
24 - Water Dance (00:03:22)

foobar2000 1.4.2 / Dynamic Range Meter 1.1.1
log date: 2021-07-04 18:44:29

––––––––––––––––––––––––––––––––––––––––
Analyzed: David Ianni / Songs of Love, Vol. 1
––––––––––––––––––––––––––––––––––––––––

DR Peak RMS Duration Track
––––––––––––––––––––––––––––––––––––––––
DR15 -1.16 dB -22.60 dB 2:52 01-Coming Home
DR13 -1.00 dB -19.09 dB 2:10 02-Solitude
DR12 -4.48 dB -23.54 dB 2:16 03-Within
DR12 -1.10 dB -17.67 dB 2:53 04-Wings of Hope
DR11 -2.95 dB -19.04 dB 3:04 05-Angel Dance
DR14 -2.10 dB -21.57 dB 1:59 06-Reflections
DR13 -1.00 dB -17.70 dB 5:01 07-Summer Nights
DR11 -1.00 dB -18.18 dB 1:56 08-Feathers
DR12 -1.00 dB -17.48 dB 2:55 09-Worship
DR14 -2.32 dB -22.59 dB 3:40 10-Children of Aleppo
DR12 -1.37 dB -18.23 dB 2:32 11-Peaceful
DR12 -1.00 dB -16.64 dB 2:53 12-My Diary
DR12 -1.00 dB -18.40 dB 2:26 13-Healing
DR13 -1.00 dB -19.33 dB 3:49 14-Mercy
DR11 -7.92 dB -23.48 dB 2:28 15-Snowflakes
DR12 -6.07 dB -23.04 dB 1:45 16-Palindrome
DR12 -1.00 dB -17.13 dB 3:00 17-River of Love
DR13 -1.00 dB -17.78 dB 4:30 18-Heartland
DR15 -3.82 dB -25.18 dB 2:51 19-Butterflies
DR13 -1.00 dB -19.98 dB 5:25 20-Lisa
DR14 -3.32 dB -23.68 dB 3:00 21-In Paradisum
DR12 -1.42 dB -18.82 dB 3:33 22-Parallel Worlds
DR14 -3.65 dB -22.86 dB 5:09 23-Amoureux
DR11 -1.00 dB -16.95 dB 3:22 24-Water Dance
––––––––––––––––––––––––––––––––––––––––

Number of tracks: 24
Official DR value: DR13

Samplerate: 48000 Hz
Channels: 2
Bits per sample: 24
Bitrate: 1228 kbps
Codec: FLAC

All thanks go to the original releaser

Download David Ianni - Songs of Love, Vol. 1 (2021):