Tags
Language
Tags
January 2023
Su Mo Tu We Th Fr Sa
1 2 3 4 5 6 7
8 9 10 11 12 13 14
15 16 17 18 19 20 21
22 23 24 25 26 27 28
29 30 31 1 2 3 4

Dhafer Youssef - Street of Minarets (2023) [Official Digital Download]

Posted By: ciklon5
Dhafer Youssef - Street of Minarets (2023) [Official Digital Download]

Dhafer Youssef - Street of Minarets (2023) [Official Digital Download]
FLAC (tracks), Lossless [24bit-96kHz] | 59:46 | 1,11 Gb
Genre: Jazz / Label: Back Beat Edition

"The topic of the album is first and foremost about traveling…" says Dhafer. "After traveling to the four corners of the world, in search of new sounds, here I sing differently and use vocal effects that I grew up with. Particularly the sound effect of megaphones for the call to prayer - hence the record title Street of Minarets." The rest of the guests took part in the magical journey too.

Track List:
1. Street of Minarets (8:58)
2. Bal d’âme (4:19)
3. SharQ Serenade ("SharQ” Suite) (4:40)
4. Funky SharQ (“SharQ” Suite) (4:05)
5. Flying Dervish Intro (“Omar Khayyam” Suite) (4:02)
6. Flying Dervish (”Omar Khayyam” Suite) (6:01)
7. Flying Dervish Outro (”Omar Khayyam” Suite) (2:18)
8. Sudra Funk (4:22)
9. Whirling in the Air (3:49)
10. Spinning Hermit (6:09)
11. Herbie’s Dance (4:52)
12. Ondes of Chakras (6:17)

foobar2000 1.6.10 / Dynamic Range Meter 1.1.1
log date: 2023-01-25 07:41:31

––––––––––––––––––––––––––––––––––––––––
Analyzed: Dhafer Youssef / Street of Minarets
––––––––––––––––––––––––––––––––––––––––

DR Peak RMS Duration Track
––––––––––––––––––––––––––––––––––––––––
DR10 -2.95 dB -15.22 dB 8:58 01-Street of Minarets
DR10 -4.65 dB -19.73 dB 4:19 02-Bal d’âme
DR10 -2.90 dB -14.54 dB 4:40 03-SharQ Serenade ("SharQ” Suite)
DR9 -2.82 dB -14.01 dB 4:05 04-Funky SharQ (“SharQ” Suite)
DR10 -2.49 dB -16.85 dB 4:02 05-Flying Dervish Intro (“Omar Khayyam” Suite)
DR9 0.00 dB -11.10 dB 6:01 06-Flying Dervish (”Omar Khayyam” Suite)
DR12 -1.15 dB -17.43 dB 2:18 07-Flying Dervish Outro (”Omar Khayyam” Suite)
DR10 -2.18 dB -13.77 dB 4:22 08-Sudra Funk
DR11 -1.64 dB -16.86 dB 3:49 09-Whirling in the Air
DR10 -2.28 dB -16.38 dB 6:09 10-Spinning Hermit
DR11 -1.53 dB -14.39 dB 4:52 11-Herbie’s Dance
DR10 -1.65 dB -15.26 dB 6:17 12-Ondes of Chakras
––––––––––––––––––––––––––––––––––––––––

Number of tracks: 12
Official DR value: DR10

Samplerate: 96000 Hz
Channels: 2
Bits per sample: 24
Bitrate: 2654 kbps
Codec: FLAC
================================================================================