Tags
Language
Tags

Django Reinhardt - Django Reinhardt Volume II (1969) [Official Digital Download 24/96]

Posted By: pyatak
Django Reinhardt - Django Reinhardt Volume II (1969) [Official Digital Download 24/96]

Django Reinhardt - Django Reinhardt Volume II (1969) [Official Digital Download 24/96]
FLAC (tracks) 24-bit/96 kHz | Front Cover | Time - 28:14 minutes | 435 MB
Jazz | Label: Archive of Folk & Jazz Music, Official Digital Download

Jean Reinhardt (23 January 1910 – 16 May 1953), known to all by his Romani nickname Django (French: [dʒãŋɡo ʁɛjnaʁt] or [dʒɑ̃ɡo ʁenɑʁt]), was a Belgian-born Romani-French jazz guitarist and composer. He was the first major jazz talent to emerge from Europe and remains the most significant.

With violinist Stéphane Grappelli, Reinhardt formed the Paris-based Quintette du Hot Club de France in 1934. The group was among the first to play jazz that featured the guitar as a lead instrument.[4] Reinhardt recorded in France with many visiting American musicians, including Coleman Hawkins and Benny Carter, and briefly toured the United States with Duke Ellington's orchestra in 1946. He died suddenly of a stroke in 1953 at the age of 43.

Reinhardt's most popular compositions have become standards within gypsy jazz, including "Minor Swing", "Daphne", "Belleville", "Djangology", "Swing '42", and "Nuages". Jazz guitarist Frank Vignola claims that nearly every major popular-music guitarist in the world has been influenced by Reinhardt. Over the last few decades, annual Django festivals have been held throughout Europe and the U.S., and a biography has been written about his life. In February 2017, the Berlin International Film Festival held the world premiere of the French film Django.

TRACKLIST

1. Django Reinhardt - Moppin' the Bride
2. Django Reinhardt - Brazil
3. Django Reinhardt - Danse Norvegienne
4. Django Reinhardt - I'll Never Smile Again
5. Django Reinhardt - Night and Day
6. Django Reinhardt - Babik
7. Django Reinhardt - Feerie
8. Django Reinhardt - Heavy Artillery
9. Django Reinhardt - Fly Fishing
10. Django Reinhardt - Crepuscule

foobar2000 1.6.2 / Dynamic Range Meter 1.1.1
log date: 2021-06-14 20:17:31

––––––––––––––––––––––––––––––––––––––––
Analyzed: Django Reinhardt / Django Reinhardt Volume II
––––––––––––––––––––––––––––––––––––––––

DR Peak RMS Duration Track
––––––––––––––––––––––––––––––––––––––––
DR10 -1.18 dB -13.40 dB 2:17 01-Moppin' the Bride
DR10 -1.98 dB -14.20 dB 2:49 02-Brazil
DR10 -2.04 dB -15.24 dB 2:54 03-Danse Norvegienne
DR11 -1.20 dB -15.11 dB 2:43 04-I'll Never Smile Again
DR11 -1.67 dB -14.58 dB 2:52 05-Night and Day
DR11 -1.18 dB -14.00 dB 2:05 06-Babik
DR11 -1.21 dB -14.49 dB 2:16 07-Feerie
DR11 -1.18 dB -14.00 dB 4:11 08-Heavy Artillery
DR10 -1.18 dB -13.03 dB 2:17 09-Fly Fishing
DR10 -1.18 dB -14.59 dB 3:55 10-Crepuscule
––––––––––––––––––––––––––––––––––––––––

Number of tracks: 10
Official DR value: DR11

Samplerate: 96000 Hz
Channels: 2
Bits per sample: 24
Bitrate: 2062 kbps
Codec: FLAC
================================================================================



Thanks to the Original customer.