Eddie “Lockjaw” Davis - Very Saxy (1959/2014) [Official Digital Download 24bit/44.1kHz]

Posted By: tiburon
Eddie “Lockjaw” Davis - Very Saxy (1959/2014) [Official Digital Download 24bit/44.1kHz]

Eddie “Lockjaw” Davis - Very Saxy (1959/2014)
FLAC tracks 24bit/44.1kHz | Digital Booklet | 494MB + 5% Recovery
Studio Master, Official Digital Download, Prestige Records

When four veterans like Coleman Hawkins, Buddy Tate, Eddie Davis, and Arnett Cobb get together, no longer young bucks that have to prove themselves, they still like to assert their musical masculinity. It is like four old friends in their shirtsleeves or T-shirts, having an old fashioned bull session over beer and pretzels or an equivalent. There is talk of old times, back-slapping, head-shaking, low humor and high hilarity. Troubles of the present are forgotten temporarily as old bonds are reweaved.
Track List
01. Very Saxy (8:19)
02. Lester Leaps In (6:16)
03. Fourmost (5:23)
04. Foot Pattin' (8:53)
05. Light And Lovely (9:56)

musicians
Eddie "Lockjaw" Davis - tenor sax
Coleman Hawkins - tenor sax
Arnett Cobb - tenor sax
Buddy Tate - tenor sax
Shirley Scott - Hammond organ
George Duvivier - bass
Arthur Edgehill - drums


––––––––––––––––––––––––––––––––––––––––
Analyzed: Eddie “Lockjaw” Davis, Buddy Tate, Coleman Hawkins, Arnett Cobb / Very Saxy
––––––––––––––––––––––––––––––––––––––––

DR Peak RMS Duration Track
––––––––––––––––––––––––––––––––––––––––
DR11 -0.01 dB -11.78 dB 8:19 01-Very Saxy
DR11 0.00 dB -12.68 dB 6:16 02-Lester Leaps In
DR11 0.00 dB -12.27 dB 5:23 03-Fourmost
DR11 0.00 dB -12.21 dB 8:53 04-Foot Pattin'
DR12 0.00 dB -12.81 dB 9:56 05-Light And Lovely
––––––––––––––––––––––––––––––––––––––––

Number of tracks: 5
Official DR value: DR11

Samplerate: 44100 Hz
Channels: 2
Bits per sample: 24
Bitrate: 1727 kbps
Codec: FLAC
================================================================================


Thanks to the original customer