Elvis Presley - Where No One Stands Alone (Remastered) (1967/2018) [Official Digital Download 24/96]

Posted By: Pisulik
Elvis Presley - Where No One Stands Alone (Remastered) (1967/2018) [Official Digital Download 24/96]

Elvis Presley - Where No One Stands Alone (Remastered) (1967/2018)
FLAC (tracks) 24-bit/96 kHz | Time - 44:14 minutes | 842 MB
Studio Master, Official Digital Download | Artwork: Front cover

Groundbreaking new Elvis album features 14 original performances of gospel songs with newly-recorded instrumentation and backing vocals featuring legendary Presley alumnae including Darlene Love, Cissy Houston, The Imperials and The Stamps. "Since I was two years old", Elvis Presley once said, "all I knew was gospel music. It became such a part of my life, it was as natural as dancing. A way to escape my problems, and my way of release." It was gospel music that most ferociously stoked his musical passions, even as his unique synthesis of country, popular and rhythm and blues styles made him an idol to millions around the world.

The new album Where No One Stands Alone celebrates the power and passion of Elvis Presley’s gospel music. Produced by Joel Weinshanker, Andy Childs and Lisa Marie Presley, the album features 14 of Elvis’ most treasured performances of inspirational music with rare alternate Elvis vocal takes and newly-recorded instrumentation and backing vocals, including members of The Blossoms, The Sweet Inspirations, The Imperials, and The Stamps Quartet. The title track, originally recorded in 1966, is presented as a duet between Elvis and his daughter, Lisa Marie Presley.

Tracklist:

01. I've Got Confidence
02. Where No One Stands Alone
03. Saved
04. Crying In the Chapel
05. So High
06. Stand By Me
07. Bosom of Abraham
08. How Great Thou Art
09. I, John
10. You'll Never Walk Alone
11. He Touched Me
12. In the Garden
13. He Is My Everything
14. Amazing Grace

Personnel:

Elvis Presley - vocals
Lisa Marie Presley - vocals
Royal Philharmonic Orchestra

foobar2000 1.3.7 / Dynamic Range Meter 1.1.1
log date: 2018-08-09 23:44:23

––––––––––––––––––––––––––––––––––––––––
Analyzed: Elvis Presley / Where No One Stands Alone (Remastered)
––––––––––––––––––––––––––––––––––––––––

DR Peak RMS Duration Track
––––––––––––––––––––––––––––––––––––––––
DR8 -0.20 dB -9.15 dB 3:34 01-I've Got Confidence
DR8 -0.30 dB -10.62 dB 3:41 02-Where No One Stands Alone
DR7 -0.20 dB -8.49 dB 3:32 03-Saved
DR11 -0.30 dB -13.74 dB 2:35 04-Crying In the Chapel
DR8 -0.20 dB -9.23 dB 2:44 05-So High
DR9 -0.25 dB -12.88 dB 2:48 06-Stand By Me
DR8 -0.20 dB -8.63 dB 2:24 07-Bosom of Abraham
DR7 -0.20 dB -9.72 dB 3:09 08-How Great Thou Art
DR7 -0.20 dB -8.94 dB 3:07 09-I, John
DR6 -0.30 dB -9.78 dB 3:06 10-You'll Never Walk Alone
DR7 -0.20 dB -9.56 dB 3:06 11-He Touched Me
DR9 -0.30 dB -11.40 dB 3:55 12-In the Garden
DR7 -0.30 dB -9.11 dB 3:05 13-He Is My Everything
DR8 -0.30 dB -9.79 dB 3:29 14-Amazing Grace
––––––––––––––––––––––––––––––––––––––––

Number of tracks: 14
Official DR value: DR8

Samplerate: 96000 Hz
Channels: 2
Bits per sample: 24
Bitrate: 2618 kbps
Codec: FLAC
================================================================================


All thanks go to the original releaser