Erroll Garner - Feeling is Believing (Remastered) (2020) [Official Digital Download 24/96]

Posted By: SERTiL
Erroll Garner - Feeling is Believing (Remastered) (2020) [Official Digital Download 24/96]

Erroll Garner - Feeling is Believing (Remastered) (2020)
FLAC (tracks) 24-bit/96 kHz | Time - 44:16 minutes | 858 MB
Studio Master, Official Digital Download | Artwork: Front Cover

Recorded at the tail end of 1969 with a cast of new collaborators, this album is a prime showcase of Erroll Garner’s two greatest strengths: his ability to completely reinvent well known songs, and his endlessly creative facility as a composer of original music. From his sultry “The Loving Touch” to the Afrofuturistic “Mood Island,” Garner’s originality again proves boundless.

Tracklist:
01. For Once in My Life (Remastered 2020) (3:26)
02. Yesterday (Remastered 2020) (3:08)
03. The Look of Love (Remastered 2020) (2:43)
04. You Turned Me Around (Remastered 2020) (8:04)
05. Mood Island (Remastered 2020) (4:39)
06. Spinning Wheel (Remastered 2020) (3:29)
07. The Loving Touch (Remastered 2020) (5:41)
08. Strangers in the Night (Remastered 2020) (3:46)
09. Feeling is Believing (Remastered 2020) (2:41)
10. Paisley Eyes (Remastered 2020) (3:01)
11. Not So Fast (Remastered 2020) (3:45)

Personnel:
Erroll Garner, piano
Wally Richardson, guitar
George Duvivier, bass
Gerald Jemmott, bass
Charles Persip, drums
Jimmie Smith, drums
Joe Cocuzzo, drums
Jose Mangual, congas

Produced by Martha Glaser

Digitally remastered

foobar2000 1.3.7 / Dynamic Range Meter 1.1.1
log date: 2020-03-18 22:20:01

––––––––––––––––––––––––––––––––––––––––
Analyzed: Erroll Garner / Feeling is Believing (Octave Remastered Series)
––––––––––––––––––––––––––––––––––––––––

DR Peak RMS Duration Track
––––––––––––––––––––––––––––––––––––––––
DR11 -0.50 dB -12.77 dB 3:26 01-For Once in My Life (Remastered 2020)
DR12 -0.64 dB -14.76 dB 3:08 02-Yesterday (Remastered 2020)
DR13 -0.50 dB -16.82 dB 2:43 03-The Look of Love (Remastered 2020)
DR13 -0.50 dB -15.13 dB 8:04 04-You Turned Me Around (Remastered 2020)
DR12 -0.50 dB -15.86 dB 4:39 05-Mood Island (Remastered 2020)
DR12 -0.50 dB -14.60 dB 3:29 06-Spinning Wheel (Remastered 2020)
DR12 -0.50 dB -16.29 dB 5:41 07-The Loving Touch (Remastered 2020)
DR11 -0.52 dB -13.34 dB 3:46 08-Strangers in the Night (Remastered 2020)
DR12 -1.88 dB -17.53 dB 2:41 09-Feeling is Believing (Remastered 2020)
DR12 -0.50 dB -14.73 dB 3:01 10-Paisley Eyes (Remastered 2020)
DR11 -1.39 dB -15.02 dB 3:45 11-Not So Fast (Remastered 2020)
––––––––––––––––––––––––––––––––––––––––

Number of tracks: 11
Official DR value: DR12

Samplerate: 96000 Hz
Channels: 2
Bits per sample: 24
Bitrate: 2746 kbps
Codec: FLAC
================================================================================


Thanks to the Original customer.