Erroll Garner - That's My Kick (Octave Remastered Series) (2020) [Official Digital Download 24/96]

Posted By: SERTiL
Erroll Garner - That's My Kick (Octave Remastered Series) (2020) [Official Digital Download 24/96]

Erroll Garner - That's My Kick (Octave Remastered Series) (2020)
FLAC (tracks) 24-bit/96 kHz | Time - 39:50 minutes | 744 MB
Studio Master, Official Digital Download | Artwork: Front Cover

'That's My Kick' was Erroll Garner's first traditional studio album in five years and perhaps his most ambitious album ever as a composer. The selections were surely inspired by the new array of musicians assembled for the sessions, including percussionist José Mangual, who would go on to play with Garner for rest of his career. The electric atmosphere captured on tape here is at times raucous and always palpably joyful.

The Octave Remastered Series represents the heart of Erroll Garner's recorded catalog. Spanning 12 albums recorded and released between 1959 and 1976, this collection of music is among the most important in the history of jazz. It represents an artist in his prime, with full creative and commercial control of his output following his break with Columbia Records. All of these albums were owned by Garner's Octave Records and licensed for release on a variety of iconic labels, including MGM, ABC, Philips, Mercury, Reprise, MPS, and more.

Tracklist:
1. That's My Kick 2:51
2. The Shadow of Your Smile 4:02
3. Like It Is 2:47
4. It Ain't Necessarily So 3:35
5. Autumn Leaves 3:25
6. Blue Moon 2:47
7. More 2:59
8. Gaslight 4:34
9. Nervous Waltz 3:26
10. Passing Through 2:41
11. Afinidad 2:57
12. She Walked On 3:46

foobar2000 1.3.7 / Dynamic Range Meter 1.1.1
log date: 2020-01-17 11:42:43

––––––––––––––––––––––––––––––––––––––––
Analyzed: Erroll Garner / That's My Kick (Octave Remastered Series)
––––––––––––––––––––––––––––––––––––––––

DR Peak RMS Duration Track
––––––––––––––––––––––––––––––––––––––––
DR11 -0.51 dB -14.34 dB 2:51 01-That’s My Kick (Remastered 2020)
DR12 -0.50 dB -14.10 dB 4:02 02-The Shadow of Your Smile (Remastered 2020)
DR12 -0.50 dB -13.96 dB 2:48 03-Like It Is (Remastered 2020)
DR11 -0.50 dB -13.91 dB 3:36 04-It Ain't Necessarily So (Remastered 2020)
DR13 -0.52 dB -15.04 dB 3:25 05-Autumn Leaves (Remastered 2020)
DR11 -3.68 dB -16.37 dB 2:47 06-Blue Moon (Remastered 2020)
DR11 -0.50 dB -13.51 dB 2:59 07-More (Remastered 2020)
DR12 -0.50 dB -16.48 dB 4:35 08-Gaslight (Remastered 2020)
DR11 -2.18 dB -16.04 dB 3:27 09-Nervous Waltz (Remastered 2020)
DR12 -0.50 dB -14.02 dB 2:41 10-Passing Through (Remastered 2020)
DR10 -2.28 dB -15.21 dB 2:57 11-Afinidad (Remastered 2020)
DR12 -0.85 dB -15.43 dB 3:47 12-She Walked On (Remastered 2020)
––––––––––––––––––––––––––––––––––––––––

Number of tracks: 12
Official DR value: DR12

Samplerate: 96000 Hz
Channels: 2
Bits per sample: 24
Bitrate: 2849 kbps
Codec: FLAC
================================================================================


Thanks to the Original customer.