François-Frédéric Guy - Montalbetti: Solos, a Personal Diary in Music (2016) [Official Digital Download 24/48]

Posted By: shamanicus
François-Frédéric Guy - Montalbetti: Solos, a Personal Diary in Music (2016) [Official Digital Download 24/48]

François-Frédéric Guy - Montalbetti: Solos, a Personal Diary in Music (2016)
FLAC (tracks) 24-bit/48 kHz | 1:06:42 | 729 mb
Studio Master, Official Digital Download | Artwork: front Cover, d.booklet

Eric Montalbetti has had a long and fulfilling music career, though not necessarily in the field of composition. He is most known for his 18 year tenure as Artistic director of the Orchestre Philharmonique de Radio France. However, he began composing as a young child and has continued throughout his whole life. Montalbetti writes of this project: Today, I am most happy to see my scores taking life thanks to wonderful conductors and soloists, and to develop new composition projects for the future. In this music one can hear all of our most varied emotions- energy, mourning, hope, love, rage, and gratitude. Notable works on this release include Trois etudes pares Kandinsky for piano, and Esprit tendre, for oboe, which is a tribute to Helen and Elliott Carter. These works are performed by some of the best soloists in the current French music scene.

François-Frédéric Guy - Montalbetti: Solos, a Personal Diary in Music (2016) [Official Digital Download 24/48]


Tracklist:

01. François-Frédéric Guy - Deux traits noirs
02. François-Frédéric Guy - De l'obscurité des sphères à leur éclat - After "Yellow-Red-Blue"
03. François-Frédéric Guy - Furieusement amoureux - After "Lyrical"
04. Jean-Louis Capezzali - Esprit tendre for Solo Oboe
05. Tedi Papavrami - First Movement
06. Tedi Papavrami - Second Movement
07. Tedi Papavrami - Third Movement
08. Tedi Papavrami - Fourth Movement
09. Marc Coppey - Elégie
10. Marc Coppey - L'absent
11. Marc Coppey - Bicinium
12. Nicolas Baldeyrou - Formant I
13. Nicolas Baldeyrou - Formant II
14. Nicolas Baldeyrou - Formant III
15. Nicolas Baldeyrou - Formant IV
16. Nicolas Baldeyrou - Formant V
17. David Guerrier - Prière de l'ange gardien for Solo Horn

Eric Montalbetti, composer
François-Frédéric Guy, piano
Tedi Papavrami, violin
Marc Coppey, cello
Nicolas Baldeyrou, clarinet
Jean-Louis Capezzali, oboe
David Guerrier, trumpet



foobar2000 1.4 / Dynamic Range Meter 1.1.1
log date: 2020-01-17 17:18:40

––––––––––––––––––––––––––––––––––––––––
Analyzed: David Guerrier / Montalbetti: Solos, a Personal Diary in Music (1)
François-Frédéric Guy / Montalbetti: Solos, a Personal Diary in Music (2-4)
Jean-Louis Capezzali / Montalbetti: Solos, a Personal Diary in Music (5)
Marc Coppey / Montalbetti: Solos, a Personal Diary in Music (6-8)
Nicolas Baldeyrou / Montalbetti: Solos, a Personal Diary in Music (9-13)
Tedi Papavrami / Montalbetti: Solos, a Personal Diary in Music (14-17)
––––––––––––––––––––––––––––––––––––––––

DR Peak RMS Duration Track
––––––––––––––––––––––––––––––––––––––––
DR7 -0.77 dB -13.00 dB 8:42 17-Prière de l'ange gardien for Solo Horn
DR13 -0.25 dB -17.37 dB 1:05 01-Deux traits noirs
DR12 -0.53 dB -16.01 dB 2:09 02-De l'obscurité des sphères à leur éclat - After "Yellow-Red-Blue"
DR10 -0.22 dB -13.24 dB 1:18 03-Furieusement amoureux - After "Lyrical"
DR11 -1.09 dB -16.65 dB 6:56 04-Esprit tendre for Solo Oboe
DR10 -3.50 dB -16.35 dB 8:18 09-Elégie
DR10 -3.91 dB -16.84 dB 3:00 10-L'absent
DR8 -3.50 dB -15.70 dB 8:50 11-Bicinium
DR12 -0.98 dB -17.14 dB 1:04 12-Formant I
DR10 -3.23 dB -19.46 dB 1:06 13-Formant II
DR10 -0.96 dB -12.53 dB 1:21 14-Formant III
DR12 -0.70 dB -18.58 dB 4:24 15-Formant IV
DR10 -0.75 dB -16.38 dB 6:33 16-Formant V
DR12 -3.58 dB -18.86 dB 2:03 05-First Movement
DR12 -3.28 dB -19.77 dB 2:15 06-Second Movement
DR10 -12.93 dB -28.91 dB 5:26 07-Third Movement
DR11 -3.00 dB -17.25 dB 2:12 08-Fourth Movement
––––––––––––––––––––––––––––––––––––––––

Number of tracks: 17
Official DR value: DR11

Samplerate: 48000 Hz
Channels: 2
Bits per sample: 24
Bitrate: 1499 kbps
Codec: FLAC
================================================================================


Thanks to the Original customer.