George Harrison - All Things Must Pass (1970/2015)

Posted By: SERTiL
George Harrison - All Things Must Pass (1970/2015)

George Harrison - All Things Must Pass
Classic Rock | FLAC (tracks) 24-bit/96 kHz | 125:16 min | 2.65 GB | Digital booklet
Label: Apple | Tracks: 28 | Rls.date: 1970/2015

Without a doubt, Harrison's first solo recording, originally issued as a triple album, is his best. Drawing on his backlog of unused compositions from the late Beatles era, George crafted material that managed the rare feat of conveying spiritual mysticism without sacrificing his gifts for melody and grand, sweeping arrangements. Enhanced by Phil Spector's lush orchestral production and Harrison's own superb slide guitar, nearly every song is excellent: "Awaiting on You All," "Beware of Darkness," the Dylan collaboration "I'd Have You Anytime," "Isn't It a Pity," and the hit singles "My Sweet Lord" and "What Is Life" are just a few of the highlights. A very moving work, with a very significant flaw: the jams that comprise the final third of the album are entirely dispensable, and have probably only been played once or twice by most of the listeners who own this record. Those same jams, however, played by Eric Clapton, Carl Radle, Bobby Whitlock, and Jim Gordon (all of whom had just come off of touring as part of Delaney & Bonnie's band), proved to be of immense musical importance, precipitating the formation of Derek & the Dominos. Thus, they weren't a total dead end, and may actually be much more to the liking of the latter band's fans. ~ by Richie Unterberger

TRACKLIST
1. I'd Have You Anytime 02:57
2. My Sweet Lord 04:41
3. Wah-Wah 05:38
4. Isn't It A Pity 07:11
5. What Is Life 04:24
6. If Not For You 03:31
7. Behind That Locked Door 03:07
8. Let It Down 04:58
9. Run Of The Mill 02:52
10. I Live For You 03:38
11. Beware Of Darkness (Version One - Bonus Track) 03:22
12. Let It Down (Original Guitar And Vocal Version - Bonus Track) 03:56
13. What Is Life (Backing Track - Bonus Track) 04:28
14. My Sweet Lord (2000) (Bonus Track) 04:55
15. Beware Of Darkness 03:51
16. Apple Scruffs 03:07
17. Ballad Of Sir Frankie Crisp (Let It Roll) 03:48
18. Awaiting On You All 02:48
19. All Things Must Pass 03:47
20. I Dig Love 04:57
21. Art Of Dying 03:39
22. Isn't It A Pity (Version Two) 04:48
23. Hear Me Lord 05:50
24. It's Johnny's Birthday 00:49
25. Plug Me In 03:20
26. I Remember Jeep 08:08
27. Thanks For The Pepperoni 05:32
28 Out Of The Blue 11:14

foobar2000 1.3.7 / Замер динамического диапазона (DR) 1.1.1
Дата отчёта: 2016-11-05 21:41:50

––––––––––––––––––––––––––––––––––––––––
Анализ: George Harrison / All Things Must Pass
––––––––––––––––––––––––––––––––––––––––

DR Пики RMS Продолжительность трека
––––––––––––––––––––––––––––––––––––––––
DR10 0.00 дБ -12.89 дБ 2:57 01-I'd Have You Anytime
DR8 0.00 дБ -10.63 дБ 4:41 02-My Sweet Lord
DR7 0.00 дБ -8.52 дБ 5:38 03-Wah-Wah
DR8 0.00 дБ -10.85 дБ 7:11 04-Isn't It A Pity
DR7 0.00 дБ -8.02 дБ 4:24 05-What Is Life
DR9 0.00 дБ -10.66 дБ 3:31 06-If Not For You
DR9 0.00 дБ -10.59 дБ 3:07 07-Behind That Locked Door
DR8 0.00 дБ -11.25 дБ 4:58 08-Let It Down
DR9 0.00 дБ -10.55 дБ 2:52 09-Run Of The Mill
DR10 0.00 дБ -12.14 дБ 3:38 10-I Live For You
DR12 -0.50 дБ -16.59 дБ 3:22 11-Beware Of Darkness (Version One / Bonus Track)
DR13 0.00 дБ -17.11 дБ 3:56 12-Let It Down (Original Guitar And Vocal Version / Bonus Track)
DR8 0.00 дБ -9.54 дБ 4:28 13-What Is Life (Backing Track / Bonus Track)
DR10 0.00 дБ -12.10 дБ 4:55 14-My Sweet Lord (2000) (Bonus Track)
DR9 0.00 дБ -10.71 дБ 3:51 15-Beware Of Darkness
DR11 -1.69 дБ -14.72 дБ 3:07 16-Apple Scruffs
DR9 0.00 дБ -11.34 дБ 3:48 17-Ballad Of Sir Frankie Crisp (Let It Roll)
DR8 0.00 дБ -9.43 дБ 2:48 18-Awaiting On You All
DR9 0.00 дБ -10.18 дБ 3:47 19-All Things Must Pass
DR9 0.00 дБ -11.51 дБ 4:57 20-I Dig Love
DR8 0.00 дБ -9.32 дБ 3:39 21-Art Of Dying
DR8 0.00 дБ -11.58 дБ 4:48 22-Isn't It A Pity (Version Two)
DR8 0.00 дБ -10.01 дБ 5:50 23-Hear Me Lord
DR10 -4.34 дБ -15.87 дБ 0:49 24-It's Johnny's Birthday
DR9 0.00 дБ -10.11 дБ 3:20 25-Plug Me In
DR10 -0.79 дБ -12.52 дБ 8:08 26-I Remember Jeep
DR11 0.00 дБ -11.54 дБ 5:32 27-Thanks For The Pepperoni
DR8 0.00 дБ -10.30 дБ 11:14 28-Out Of The Blue
––––––––––––––––––––––––––––––––––––––––

Количество треков: 28
Реальные значения DR: DR9

Частота: 96000 Гц
Каналов: 2
Разрядность: 24
Битрейт: 2998 кбит/с
Кодек: FLAC
================================================================================


Thanks to the Original customer.