Tags
Language
Tags

Harold Hood - Bags O' Rags (1975/2022)

Posted By: v3122
Harold Hood - Bags O' Rags (1975/2022)

Harold Hood - Bags O' Rags (1975/2022)
FLAC (Tracks) 24-bit/44.1 kHz | Official Digital Download | Time: 00:31:42
Ragtime | Remastered | Cherry Red Records | ~ 1.30 Gb

~ Cherry Red Records presents a pristine and lovingly remastered digital edition of Harold Hood's 1975 classic, Bags O' Rags. ~

Harold Hood - Bags O' Rags (1975/2022):

Tracklist:

01 - Bags O'Rag 02:04
02 - Gilded Lily 03:36
03 - Gamblin' Man 02:57
04 - The Sand Dancer 02:34
05 - Riverside Revels 02:42
06 - The Clown 02:39
07 - The Cotton Pickers 02:12
08 - Memories Of Missouri 02:57
09 - Pickin' 'n' Pluckin' 02:34
10 - Kentucky Jubilee 02:24
11 - Corn On The Cob 02:36
12 - The Syncopator 02:27

foobar2000 1.4.3 / Dynamic Range Meter 1.1.1
log date: 2022-07-04 17:01:06

––––––––––––––––––––––––––––––––––––––––
Analyzed: Harold Hood / Bags O' Rags
––––––––––––––––––––––––––––––––––––––––

DR Peak RMS Duration Track
––––––––––––––––––––––––––––––––––––––––
DR10 0.00 dB -10.95 dB 2:05 01-Bags O'Rag
DR10 -0.02 dB -11.17 dB 3:36 02-Gilded Lily
DR9 -0.01 dB -10.61 dB 2:58 03-Gamblin' Man
DR10 -0.02 dB -11.67 dB 2:34 04-The Sand Dancer
DR11 -0.02 dB -12.06 dB 2:43 05-Riverside Revels
DR10 -0.03 dB -12.32 dB 2:40 06-The Clown
DR11 -0.02 dB -11.54 dB 2:13 07-The Cotton Pickers
DR10 -0.03 dB -11.77 dB 2:58 08-Memories Of Missouri
DR12 -0.02 dB -12.90 dB 2:34 09-Pickin' 'n' Pluckin'
DR11 -0.03 dB -11.93 dB 2:25 10-Kentucky Jubilee
DR11 -0.02 dB -13.22 dB 2:36 11-Corn On The Cob
DR10 -0.04 dB -11.21 dB 2:27 12-The Syncopator
––––––––––––––––––––––––––––––––––––––––

Number of tracks: 12
Official DR value: DR10

Samplerate: 44100 Hz
Channels: 2
Bits per sample: 24
Bitrate: 1445 kbps
Codec: FLAC

All thanks go to the original releaser

Download Harold Hood - Bags O' Rags (1975/2022):