Subcategories

Jackson Browne - Late For The Sky (1974/2014)

Posted By: SERTiL
Jackson Browne - Late For The Sky (1974/2014)

Jackson Browne - Late For The Sky
Classic Rock, Soft Rock, Folk Rock | FLAC (tracks) 24-bit/192 kHz | 41:19 min | 1.44 GB | Digital booklet
Label: Rhino/Elektra | Tracks: 09 | Rls.date: 1974/2014

Jackson Browne's Late For The Sky, originally released forty years ago, will be reissued worldwide the summer of 2014, thru Inside Recordings and Rhino Records. This new 40th anniversary edition was re-mastered from the original analog tapes. The Grammy nominated album peaked at number 14 on the Billboard Pop Album chart in 1974.

Jackson Browne has written and performed some of the most literate and moving songs in popular music and has defined a genre of songwriting charged with honesty, emotion and personal politics. He was honored with induction into the Rock and Roll Hall of Fame in 2004, and the Songwriter's Hall of Fame in 2007. Beyond his music, he is known for his advocacy on behalf of the environment, human rights, and arts education.

TRACKLIST
1. Late for the Sky (5:42)
2. Fountain of Sorrow (6:52)
3. Farther On (5:21)
4. The Late Show (5:14)
5. The Road and the Sky (3:08)
6. For a Dancer (4:46)
7. Walking Slow (3:55)
8. Before the Deluge (6:27)

BAND
Jackson Browne - acoustic guitar, guitar, piano, keyboard, vocals, slide guitar
Doug Haywood - bass, backing vocals
David Lindley - fiddle, guitar, violin, electric guitar, steel guitar, slide guitar
Jai Winding - organ, piano, keyboard
Larry Zack - percussion, drums
Fritz Richmond - jug
Joyce Everson, Beth Fitchet, Dan Fogelberg, Don Henley, Perry Lindley, Terry Reid, J.D. Souther - backing vocals

foobar2000 1.3.7 / Замер динамического диапазона (DR) 1.1.1
Дата отчёта: 2016-11-09 17:50:01

––––––––––––––––––––––––––––––––––––––––
Анализ: Jackson Browne / Late For The Sky
––––––––––––––––––––––––––––––––––––––––

DR Пики RMS Продолжительность трека
––––––––––––––––––––––––––––––––––––––––
DR11 0.00 дБ -14.00 дБ 5:42 01-Late For The Sky
DR12 0.00 дБ -14.43 дБ 6:52 02-Fountain Of Sorrow
DR12 0.00 дБ -14.52 дБ 5:21 03-Farther On
DR11 0.00 дБ -14.12 дБ 5:14 04-The Late Show
DR10 0.00 дБ -12.03 дБ 3:08 05-The Road And The Sky
DR12 0.00 дБ -15.52 дБ 4:46 06-For A Dancer
DR11 0.00 дБ -12.93 дБ 3:55 07-Walking Slow
DR12 0.00 дБ -14.41 дБ 6:23 08-Before The Deluge
––––––––––––––––––––––––––––––––––––––––

Количество треков: 8
Реальные значения DR: DR11

Частота: 192000 Гц
Каналов: 2
Разрядность: 24
Битрейт: 5008 кбит/с
Кодек: FLAC
================================================================================


Thanks to the Original customer.