Tags
Language
Tags

Jake Shimabukuro - Nashville Sessions (2016) [Official Digital Download 24bit/88.2kHz]

Posted By: tiburon
Jake Shimabukuro - Nashville Sessions (2016) [Official Digital Download 24bit/88.2kHz]

Jake Shimabukuro - Nashville Sessions (2016)
FLAC tracks 24bit/88.2kHz | Front Cover | 731MB + 5% Recovery
Studio Master, Official Digital Download, e-onkyo

For 15 years, Jake Shimabukuro has been expanding the possibilities of the ukulele as an instrument, bringing it from its role as a cornerstone of Hawaiian music into the worlds of rock, jazz and classical music. This January, Shimabukuro assembled a trio and went into the studio with no music written beforehand, in hopes of coming up with some decent ideas and maybe recording a song or two. Six days later, they had recorded Nashville Sessions, a full album of original compositions, written on the spot and recorded live.
Track List
01. Hemiola Blues (01:23)
02. 6 / 8 (07:05)
03. Man of Mud (03:51)
04. Galloping Seahorses (04:39)
05. Motown (03:06)
06. Celtic Tune (02:22)
07. Tritone (Excerpt from Byron Yasui's Ukulele Concerto, Campanella - First Movement) (02:42)
08. Blue Haiku (05:41)
09. Ballad (03:08)
10. F Minor (03:13)
11. Kilauea (04:22)

musicians
Jake Shimabukuro- ukulele
Nolan Verner - bass
Evan Hutchings - drums


––––––––––––––––––––––––––––––––––––––––
Analyzed: Jake Shimabukuro / Nashvile Sessions
––––––––––––––––––––––––––––––––––––––––

DR Peak RMS Duration Track
––––––––––––––––––––––––––––––––––––––––
DR8 -0.72 dB -11.11 dB 1:23 01-Hemiola Blues
DR8 -0.72 dB -11.60 dB 7:06 02-6 / 8
DR7 -0.72 dB -9.55 dB 3:52 03-Man of Mud
DR8 -0.72 dB -12.39 dB 4:40 04-Galloping Seahorses
DR8 -0.72 dB -10.70 dB 3:06 05-Motown
DR9 -0.72 dB -14.04 dB 2:23 06-Celtic Tune
DR10 -0.72 dB -12.72 dB 2:43 07-Tritone (Excerpt from Byron Yasui's Ukulele Concerto, Campanella - First Movement)
DR10 -0.72 dB -14.00 dB 5:41 08-Blue Haiku
DR11 -0.72 dB -14.63 dB 3:08 09-Ballad
DR9 -0.72 dB -11.49 dB 3:14 10-F Minor
DR8 -0.72 dB -11.73 dB 4:22 11-Kilauea
––––––––––––––––––––––––––––––––––––––––

Number of tracks: 11
Official DR value: DR9

Samplerate: 88200 Hz
Channels: 2
Bits per sample: 24
Bitrate: 2221 kbps
Codec: FLAC
================================================================================


Thanks to the original customer