Jean Michel Jarre - Rendez-Vous (1986) [LP, DSD128]

Posted By: Discograf_man
Jean Michel Jarre - Rendez-Vous (1986) [LP, DSD128]

Jean Michel Jarre - Rendez-Vous (1986) [LP, DSD128]
Electronic, Synth-pop | DSD128 (*.dsf, tracks), 1-bit/5.64 MHz
Run Time: 00:35:07 | 2.91 GB + 5% Recovery
Label: Polydor | Release Year: 1986

Rendez-vous is the eighth studio album by electronic musician and composer Jean-Michel Jarre released on Disques Dreyfus, licensed to Polydor, in April 1986. It sold some three million copies worldwide and remains Jarre's longest-running chart album in both the U.S. and UK, with a 20-week run in the U.S. and an impressive 38-week run in the UK. The album art of the album was created by long-time collaborator Michel Granger.
The last track on the album was originally scheduled to include a saxophone part recorded by astronaut Ron McNair on the Space Shuttle Challenger, which would have made it the first piece of music to be recorded in space, but on 28 January 1986, 73 seconds after lift-off, the shuttle disintegrated and the entire Challenger crew was killed. The track was dedicated to McNair and the other astronauts on board Challenger. On the album the saxophone part is played by saxophonist Pierre Gossez.
The album reached #9 in the UK charts and reached #52 in the US, making it Jarre's highest-charting album in the country.
The album was nominated for Grammy Award for Best New Age Album in 1987, although it didn't win the award.
Jean Michel Jarre - Rendez-Vous (1986) [LP, DSD128]

Tracklist:

Side A
A1. First Rendez-Vous [2:54]
A2. Second Rendez-Vous [10:55]
A3. Third Rendez-Vous [3:30]

Side B
B4. Fourth Rendez-Vous [3:57]
B5. Fifth Rendez-Vous [7:41]
B6. Last Rendez-Vous: 'Ron's Piece' [6:04]

Jean Michel Jarre - Rendez-Vous (1986) [LP, DSD128]


foobar2000 1.4 / Dynamic Range Meter 1.1.1
log date: 2019-07-28 18:46:51

––––––––––––––––––––––––––––––––––––––––
Analyzed: Jean-Michel Jarre / Rendez-Vous,(Polydor-POLH 27,England)
––––––––––––––––––––––––––––––––––––––––

DR Peak RMS Duration Track
––––––––––––––––––––––––––––––––––––––––
DR11 -7.90 dB -21.14 dB 2:56 ?-A1 First Rendez-vous
DR11 -6.38 dB -19.15 dB 10:54 ?-A2 Second Rendez-vous
DR10 -8.05 dB -20.87 dB 3:32 ?-A3 Third Rendez-vous
DR13 -5.78 dB -20.58 dB 3:53 ?-B1 Fourth Rendez-vous
DR10 -6.84 dB -21.81 dB 7:40 ?-B2 Fifth Rendez-vous
DR11 -8.17 dB -21.81 dB 6:13 ?-B3 Last Rendez-vous: "Ron's Piece"
––––––––––––––––––––––––––––––––––––––––

Number of tracks: 6
Official DR value: DR11

Samplerate: 5644800 Hz / PCM Samplerate: 88200 Hz
Channels: 2
Bits per sample: 1
Bitrate: 11290 kbps
Codec: DSD128
================================================================================

Thanks to the original releaser!