Tags
Language
Tags

Jeff Russo - Star Trek: Discovery (Season 2) [Original Series Soundtrack] (2019) [Official Digital Download]

Posted By: Pisulik
Jeff Russo - Star Trek: Discovery (Season 2) [Original Series Soundtrack] (2019) [Official Digital Download]

Jeff Russo - Star Trek: Discovery (Season 2) [Original Series Soundtrack] (2019)
FLAC (tracks) 24-bit/44.1 kHz | Time - 99:33 minutes | 976 MB
Studio Master, Official Digital Download | Artwork: Front cover

Original Series Soundtrack (OST) from the sci-fi television series Star Trek: Discovery Season 2 (2019).
Music composed by Jeff Russo. Star Trek: Discovery is a 2017 American action-adventure science fiction television series created by Bryan Fuller and Alex Kurtzman. The series stars Sonequa Martin-Green, Doug Jones, Shazad Latif, Anthony Rapp, Mary Wiseman, Jason Isaacs.

Tracklist:

1. The Final Frontier
2. Christopher Pike
3. Lost Communication
4. What’s Wrong
5. All Of Them
6. I’m Coming Back
7. Flashback
8. Stuck
9. The Cathedral
10. He’ll Never Know Me
11. The Sphere
12. Quarantined
13. Shields
14. Questions
15. Prey
16. The Hull
17. Airlock
18. Ariam in Space
19. Fiercely Loyal
20. Song of Remembrance
21. On Site
22. Two Minutes
23. Big Picture
24. Gone
25. What Do They Call You
26. Pillar of the Past
27. Failure
28. Essential Personnel
29. Goodbyes
30. Pike On The Bridge
31. Ready
32. Time Traveler
33. Change
34. Goodbye, Pike
35. Spock’s Personal Log
36. Star Trek Discovery End Credits (Season 2 Finale Version)
37. Many Mudds (Previously Unreleased (From Short Treks ‘The Escape Artist’))
38. Star Trek Short Treks End Credits (Lounge Version (From Short Treks ‘The Escape Artist’)
39. Star Trek Short Treks Main Title (Disco Version (From Short Treks ‘The Escape Artist’)

foobar2000 1.3.7 / Dynamic Range Meter 1.1.1
log date: 2019-07-22 09:05:23

––––––––––––––––––––––––––––––––––––––––
Analyzed: Jeff Russo / Star Trek: Discovery (Season 2) [Original Series Soundtrack]
––––––––––––––––––––––––––––––––––––––––

DR Peak RMS Duration Track
––––––––––––––––––––––––––––––––––––––––
DR14 -0.49 dB -19.71 dB 4:32 01-The Final Frontier
DR14 -0.49 dB -19.89 dB 2:21 02-Christopher Pike
DR8 -0.49 dB -11.20 dB 2:10 03-Lost Communication
DR11 -0.49 dB -14.99 dB 1:28 04-What’s Wrong
DR11 -0.50 dB -15.27 dB 2:41 05-All Of Them
DR10 -0.50 dB -13.82 dB 1:40 06-I’m Coming Back
DR12 -0.49 dB -17.66 dB 3:30 07-Flashback
DR9 -0.50 dB -12.79 dB 1:43 08-Stuck
DR13 -0.50 dB -19.29 dB 2:53 09-The Cathedral
DR10 -0.50 dB -16.70 dB 1:20 10-He’ll Never Know Me
DR9 -0.50 dB -14.60 dB 0:44 11-The Sphere
DR11 -4.92 dB -20.90 dB 1:04 12-Quarantined
DR11 -0.50 dB -15.03 dB 3:05 13-Shields
DR11 -0.50 dB -17.35 dB 1:23 14-Questions
DR9 -0.49 dB -13.47 dB 3:34 15-Prey
DR8 -0.44 dB -10.80 dB 4:06 16-The Hull
DR7 -0.50 dB -11.18 dB 2:04 17-Airlock
DR12 -0.66 dB -18.78 dB 2:36 18-Ariam in Space
DR11 -1.12 dB -18.20 dB 3:06 19-Fiercely Loyal
DR10 -0.50 dB -14.44 dB 1:00 20-Song of Remembrance
DR8 -0.50 dB -12.86 dB 4:29 21-On Site
DR8 -0.47 dB -11.40 dB 2:49 22-Two Minutes
DR11 -3.02 dB -18.57 dB 2:39 23-Big Picture
DR8 -0.46 dB -12.01 dB 4:46 24-Gone
DR13 -0.76 dB -17.92 dB 1:38 25-What Do They Call You
DR11 -0.50 dB -16.32 dB 5:01 26-Pillar of the Past
DR9 -0.49 dB -12.70 dB 2:44 27-Failure
DR10 -0.50 dB -15.57 dB 2:18 28-Essential Personnel
DR9 -0.50 dB -16.25 dB 3:00 29-Goodbyes
DR10 -0.50 dB -15.02 dB 3:07 30-Pike On The Bridge
DR7 -0.49 dB -11.19 dB 3:15 31-Ready
DR9 -0.50 dB -12.13 dB 2:45 32-Time Traveler
DR10 -0.50 dB -14.28 dB 1:42 33-Change
DR10 -0.50 dB -14.43 dB 3:41 34-Goodbye, Pike
DR10 -0.49 dB -16.19 dB 4:43 35-Spock’s Personal Log
DR8 -0.49 dB -11.05 dB 1:05 36-Star Trek Discovery End Credits (Season 2 Finale Version)
DR10 -0.49 dB -11.78 dB 1:00 37-Many Mudds (Previously Unreleased From Short Treks “The Escape Artist”)
DR10 -0.50 dB -12.72 dB 1:34 38-Star Trek Short Treks End Credits (Lounge Version From Short Treks “The Escape Artist”)
DR8 -0.48 dB -10.75 dB 0:19 39-Star Trek Short Treks Main Title (Disco Version From Short Treks “The Escape Artist”)
––––––––––––––––––––––––––––––––––––––––

Number of tracks: 39
Official DR value: DR10

Samplerate: 44100 Hz
Channels: 2
Bits per sample: 24
Bitrate: 1475 kbps
Codec: FLAC
================================================================================


All thanks go to the original releaser