Laurence Juber - The Fab 4th (2020) [Official Digital Download 24/96]

Posted By: SERTiL
Laurence Juber - The Fab 4th (2020) [Official Digital Download 24/96]

Laurence Juber - The Fab 4th (2020)
FLAC (tracks) 24-bit/96 kHz | Time - 46:09 minutes | 890 MB
Studio Master, Official Digital Download | Artwork: Front Cover

The Fab 4th is an album of songs by The Beatles, arranged and performed on solo acoustic guitar by Laurence Juber. Known to his fans as LJ, his playing fuses folk, jazz, blues, pop and classical styles, creating a multi-faceted performance that belies the use of only one instrument. First internationally recognized as lead guitarist in Paul McCartney's Wings, with whom he won a Grammy®, Juber has since established himself as world-renowned guitar virtuoso and entertainer. This is his fourth Beatles-inspired solo guitar recording. The first of the series, LJ Plays The Beatles, was voted one of Acoustic Guitar Magazine's all-time Top Ten albums.

Tracklist:
01. Across the Universe (2:26)
02. Every Little Thing (2:33)
03. Back in the USSR (2:35)
04. If I Fell (2:41)
05. A Day in the Life (3:44)
06. Tell Me What You See (2:51)
07. Lady Madonna (2:35)
08. I’ll Be Back (2:37)
09. I Will (2:54)
10. Don’t Bother Me (3:05)
11. She’s Leaving Home (3:21)
12. I Need You (2:42)
13. She’s A Woman (3:06)
14. Girl (3:31)
15. Julia (2:40)
16. You Never Give Me Your Money (Bonus track) (2:56)

foobar2000 1.3.7 / Dynamic Range Meter 1.1.1
log date: 2020-03-25 12:01:31

––––––––––––––––––––––––––––––––––––––––
Analyzed: Laurence Juber / The Fab 4th
––––––––––––––––––––––––––––––––––––––––

DR Peak RMS Duration Track
––––––––––––––––––––––––––––––––––––––––
DR12 -0.10 dB -15.21 dB 2:26 01-Across the Universe
DR13 -0.10 dB -15.63 dB 2:33 02-Every Little Thing
DR12 -0.10 dB -13.77 dB 2:35 03-Back in the USSR
DR14 -0.20 dB -17.03 dB 2:41 04-If I Fell
DR12 -0.10 dB -15.21 dB 3:44 05-A Day in the Life
DR14 -0.10 dB -17.43 dB 2:51 06-Tell Me What You See
DR12 -0.10 dB -15.29 dB 2:35 07-Lady Madonna
DR14 -0.10 dB -16.81 dB 2:37 08-I’ll Be Back
DR12 -0.33 dB -15.30 dB 2:54 09-I Will
DR13 -0.10 dB -15.49 dB 3:05 10-Don’t Bother Me
DR15 -0.10 dB -17.92 dB 3:21 11-She’s Leaving Home
DR14 -0.10 dB -17.73 dB 2:42 12-I Need You
DR14 -0.10 dB -15.84 dB 3:06 13-She’s A Woman
DR13 -1.61 dB -17.01 dB 3:31 14-Girl
DR12 -1.61 dB -16.55 dB 2:40 15-Julia
DR12 -0.10 dB -15.90 dB 2:56 16-You Never Give Me Your Money (Bonus track)
––––––––––––––––––––––––––––––––––––––––

Number of tracks: 16
Official DR value: DR13

Samplerate: 96000 Hz
Channels: 2
Bits per sample: 24
Bitrate: 2693 kbps
Codec: FLAC
================================================================================


Thanks to the Original customer.