Lorne Balfe - Bad Boys for Life (Original Motion Picture Score) (2020) [Official Digital Download]

Posted By: Pisulik
Lorne Balfe - Bad Boys for Life (Original Motion Picture Score) (2020) [Official Digital Download]

Lorne Balfe - Bad Boys for Life (Original Motion Picture Score) (2020)
FLAC (tracks) 24-bit/48 kHz | Time - 39:52 minutes | 429 MB
Studio Master, Official Digital Download | Artwork: Front cover

Original Motion Picture Score from the film Bad Boys for Life (2020). The music was composed by Lorne Balfe (Secret Society of Second Born Royals, The Cry, Gemini Man). Bad Boys for Life is a 2020 American action crime comedy film written by Chris Bremner, Joe Carnahan, David Guggenheim, Anthony Tambakis, George Gallo, directed by Adil El Arbi and Bilall Fallah. The film stars Will Smith, Martin Lawrence, Vanessa Hudgens, Alexander Ludwig, Charles Melton, Paola Nunez, Kate del Castillo, Nicky Jam, Joe Pantoliano.

Tracklist:

1. Bad Boys For Life
2. It’s Good Shit Lieutenant
3. Take Back What’s Ours
4. We’re Dangerous People
5. What Else You Got
6. Prayer
7. God’s Gun
8. The Truth
9. Promise To God
10. We Ride Together, We Die Together
11. Ambulance Heist
12. One Last Time

foobar2000 1.3.7 / Dynamic Range Meter 1.1.1
log date: 2020-01-28 02:33:47

––––––––––––––––––––––––––––––––––––––––
Analyzed: Lorne Balfe / Bad Boys for Life (Original Motion Picture Score)
––––––––––––––––––––––––––––––––––––––––

DR Peak RMS Duration Track
––––––––––––––––––––––––––––––––––––––––
DR6 -0.49 dB -8.30 dB 2:47 01-Bad Boys for Life
DR6 -0.50 dB -9.47 dB 3:19 02-It's Good Shit Lieutenant
DR10 -0.50 dB -15.51 dB 2:09 03-Take Back What's Ours
DR9 -0.49 dB -13.08 dB 3:46 04-We're Dangerous People
DR6 -0.48 dB -8.62 dB 3:13 05-What Else You Got?
DR10 -0.50 dB -15.02 dB 3:12 06-Prayer
DR7 -0.50 dB -9.61 dB 2:37 07-God's Gun
DR8 -0.50 dB -13.07 dB 4:52 08-The Truth
DR12 -0.32 dB -17.47 dB 2:59 09-Promise to God
DR6 -0.34 dB -9.19 dB 6:02 10-We Ride Together, We Die Together
DR8 -0.49 dB -11.71 dB 2:59 11-Ambulance Heist
DR7 -0.50 dB -9.86 dB 1:57 12-One Last Time
––––––––––––––––––––––––––––––––––––––––

Number of tracks: 12
Official DR value: DR8

Samplerate: 44100 Hz
Channels: 2
Bits per sample: 24
Bitrate: 1541 kbps
Codec: FLAC
================================================================================


All thanks go to the original releaser