Louise Lemón - A Broken Heart is an Open Heart (2019) [Official Digital Download 24/96]

Posted By: Pisulik
Louise Lemón - A Broken Heart is an Open Heart (2019) [Official Digital Download 24/96]

Louise Lemón - A Broken Heart is an Open Heart (2019)
FLAC (tracks) 24-bit/96 kHz | Time - 34:32 minutes | 709 MB
Studio Master, Official Digital Download | Artwork: Front cover

Following on from her critically praised debut album ‘Purge’, Louise Lemón returns with her highly anticipated new album A Broken Heart Is An Open Heart. Experimenting with instrumentation and production since her last full-length, Lemón is a rejuvenated presence on her new album, taking cues from the 60s and 70s psych-rock and soul era to influence her songwriting, channelling the sultry vibes of the early Fleetwood Mac-era.

Produced and mixed alongside regular collaborator Randall Dunn (Sunn O))) / Myrkur / Chelsea Wolfe) in Copenhagen and New York, the record was exclusively recorded using vintage microphones and amplifiers to create the most organic sound, with each track recorded live in the studio.

Speaking about the new album, Louise added, “I wanted to make it this album both darker and brighter. We've used far cleaner sounds than ever before, concentrating on creating darkness in new ways. The songwriting has been very focused. I’ve evolved as a woman and with my writing I’ve explored new feelings, going further and deeper in to the ways I’ve felt and the situations life's brought me to. It was such a blessing to be able to work with my band so closely, they are very much a part of the soundscape and we couldn’t be happier to have had Randall Dunn produce it.”

Tracklist:

01. Sunlight
02. Montaña
03. Not Enough
04. Blurry Vision
05. Swimming in Sadness
06. Susceptible Soul
07. Cross
08. Honest Heart
09. Almond Milk
10. A Broken Heart is an Open Heart

foobar2000 1.3.7 / Dynamic Range Meter 1.1.1
log date: 2019-03-14 23:26:44

––––––––––––––––––––––––––––––––––––––––
Analyzed: Louise Lemón / A Broken Heart is an Open Heart
––––––––––––––––––––––––––––––––––––––––

DR Peak RMS Duration Track
––––––––––––––––––––––––––––––––––––––––
DR8 -0.52 dB -10.18 dB 3:14 01-Sunlight
DR6 -0.52 dB -9.37 dB 2:58 02-Montaña
DR6 -0.52 dB -8.40 dB 3:26 03-Not Enough
DR7 -0.52 dB -9.75 dB 3:20 04-Blurry Vision
DR10 -0.52 dB -13.83 dB 3:40 05-Swimming in Sadness
DR9 -0.52 dB -12.48 dB 4:57 06-Susceptible Soul
DR7 -0.52 dB -9.26 dB 3:24 07-Cross
DR7 -0.52 dB -10.02 dB 3:25 08-Honest Heart
DR6 -0.52 dB -8.72 dB 3:38 09-Almond Milk
DR6 -0.52 dB -9.67 dB 2:37 10-A Broken Heart is an Open Heart
––––––––––––––––––––––––––––––––––––––––

Number of tracks: 10
Official DR value: DR7

Samplerate: 96000 Hz
Channels: 2
Bits per sample: 24
Bitrate: 2816 kbps
Codec: FLAC
================================================================================


All thanks go to the original releaser