Madison Cunningham - For The Sake Of The Rhyme EP (2019) [Official Digital Download 24/96]

Posted By: Pisulik
Madison Cunningham - For The Sake Of The Rhyme EP (2019) [Official Digital Download 24/96]

Madison Cunningham - For The Sake Of The Rhyme EP (2019)
FLAC (tracks) 24-bit/96 kHz | Time - 24:10 minutes | 469 MB
Studio Master, Official Digital Download | Artwork: Front cover

At 20 years old, Madison Cunningham has already established herself as a dazzling and gifted singer-songwriter. Her EP, Love, Lose, Remember, came out in 2017. A regular musician on this season of Live from Here, Madison recently took some time to tell us a bit about her childhood, writing process, and some of the songs and artists that inspire her. You debuted this otherworldly, gorgeous new song on the show in mid-January called “Beauty Into Clichés.” Can you talk about its inspiration? It’s breathtaking.

There’s some songs that are like blocks. Piece by piece you build them. Sometimes laboriously. Maybe you find a new block to add to the stack every other day. And then there’s songs that are already made houses and you just get to walk through the door. I was driving to Walmart in Orange County, which I still can’t remember why I was going there, and the first couple lines of verse one popped into my head. (It’s safe to say my Honda is responsible for finishing most of my songs). When I got home I sat down at my parents’ upright piano and it was like I was copying a song that was already written. The meaning became clear to me later on. I get spooked by songs like this when they come around because I try to go back and reverse the steps to finishing it and it’s like trying to remember a dream you had the night before. Hopefully one day I’ll get to meet the spirit who wrote it.

Tracklist:

01. Beauty Into Clichés
02. Last Boat To Freedom
03. Location
04. So Long, Frank Lloyd Wright
05. All At Once
06. John Wayne

foobar2000 1.3.7 / Dynamic Range Meter 1.1.1
log date: 2019-03-14 23:05:25

––––––––––––––––––––––––––––––––––––––––
Analyzed: Madison Cunningham / For The Sake Of The Rhyme
––––––––––––––––––––––––––––––––––––––––

DR Peak RMS Duration Track
––––––––––––––––––––––––––––––––––––––––
DR6 -0.22 dB -8.42 dB 4:01 01-Beauty Into Clichés
DR7 -0.22 dB -10.96 dB 4:21 02-Last Boat To Freedom
DR7 -0.22 dB -9.45 dB 3:23 03-Location
DR11 -0.22 dB -13.98 dB 3:04 04-So Long, Frank Lloyd Wright
DR6 -0.22 dB -9.75 dB 4:23 05-All At Once
DR12 -0.22 dB -14.82 dB 4:56 06-John Wayne
––––––––––––––––––––––––––––––––––––––––

Number of tracks: 6
Official DR value: DR8

Samplerate: 96000 Hz
Channels: 2
Bits per sample: 24
Bitrate: 2572 kbps
Codec: FLAC
================================================================================


All thanks go to the original releaser