Marie Noreger - Gravity (2021) [Official Digital Download]

Posted By: shamanicus
Marie Noreger - Gravity (2021) [Official Digital Download]

Marie Noreger - Gravity (2021)
FLAC (tracks) 24-bit/44.1 kHz | 23:46 | 248 mb
Studio Master, Official Digital Download | Artwork: front cover

Introducing Norwegian singer/songwriter Marie Noreger and her delightful new single ‘Soulfully High’ which is lifted from her upcoming debut EP. The follow up to previous cut ‘Adore’ sees the newcomer showcase her poetic storytelling and sublime vocals over an uplifting and fluttery soundbed consisting of glittering electronics and warm guitars. Dive into the captivating single here and keep an eye out for Noreger’s debut EP.

Tracklist:

01. Adore
02. On You
03. Roots
04. Eager to Feel
05. Bullshit in Disguise
06. Soulfully High
07. Gravity
08. Soulfully High (Acoustic)


foobar2000 1.4 / Dynamic Range Meter 1.1.1
log date: 2021-03-26 23:45:39

––––––––––––––––––––––––––––––––––––––––
Analyzed: Marie Noreger / Gravity
––––––––––––––––––––––––––––––––––––––––

DR Peak RMS Duration Track
––––––––––––––––––––––––––––––––––––––––
DR8 -0.40 dB -10.98 dB 3:05 01-Adore
DR7 -0.25 dB -9.33 dB 3:10 02-On You
DR5 -0.25 dB -7.69 dB 2:43 03-Roots
DR7 -0.25 dB -9.36 dB 3:04 04-Eager to Feel
DR7 -0.40 dB -9.15 dB 2:39 05-Bullshit in Disguise
DR7 -0.40 dB -10.19 dB 2:52 06-Soulfully High
DR8 -0.20 dB -10.41 dB 2:51 07-Gravity
DR7 -0.25 dB -8.90 dB 3:21 08-Soulfully High (Acoustic)
––––––––––––––––––––––––––––––––––––––––

Number of tracks: 8
Official DR value: DR7

Samplerate: 44100 Hz
Channels: 2
Bits per sample: 24
Bitrate: 1450 kbps
Codec: FLAC
================================================================================




Thanks to the Original customer.