Mötley Crüe - Girls, Girls, Girls (40th Anniversary Remastered) (2021) [Official Digital Download 24/96]

Posted By: Pisulik
Mötley Crüe - Girls, Girls, Girls (40th Anniversary Remastered) (2021) [Official Digital Download 24/96]

Mötley Crüe - Girls, Girls, Girls (40th Anniversary Remastered) (2021)
FLAC (tracks) 24-bit/96 kHz | Time - 39:50 minutes | 892 MB
Studio Master, Official Digital Download | Artwork: Front cover

Girls, Girls, Girls continued Mötley Crüe's commercial hot streak, eventually going quadruple platinum as its predecessor, Theatre of Pain, had; meanwhile, the title track brought them their second Top 20 single, and "Wild Side" became a popular MTV item. In general, the Crüe really plays up the sleaze factor on this album, trying to recapture some of the street-tough grittiness that fueled Too Fast for Love even appearing on the cover astride motorcycles and wearing leather; this time around, the influence of Aerosmith is felt to a much greater degree. The production is too polished to really give the record a raw, dirty feel, but the raunchiness comes through all the same. Again, there's a bit of filler, as though the band knew they didn't have to make a completely consistent record to maintain their popularity, but there are enough high points along the way to make Girls, Girls, Girls an entertaining party-metal platter.

Tracklist:

01. Mötley Crüe - Wild Side (40th Anniversary Remastered)
02. Mötley Crüe - Girls, Girls, Girls (40th Anniversary Remastered)
03. Mötley Crüe - Dancing On Glass (40th Anniversary Remastered)
04. Mötley Crüe - Bad Boy Boogie (40th Anniversary Remastered)
05. Mötley Crüe - Nona (40th Anniversary Remastered)
06. Mötley Crüe - Five Years Dead (40th Anniversary Remastered)
07. Mötley Crüe - All In The Name Of (40th Anniversary Remastered)
08. Mötley Crüe - Sumthin' For Nuthin' (40th Anniversary Remastered)
09. Mötley Crüe - You're All I Need (40th Anniversary Remastered)
10. Mötley Crüe - Jailhouse Rock (Live) (40th Anniversary Remastered)

foobar2000 1.3.7 / Dynamic Range Meter 1.1.1
log date: 2021-06-10 08:55:05

––––––––––––––––––––––––––––––––––––––––
Analyzed: Mötley Crüe / Girls, Girls, Girls (40th Anniversary Remastered)
––––––––––––––––––––––––––––––––––––––––

DR Peak RMS Duration Track
––––––––––––––––––––––––––––––––––––––––
DR7 -0.21 dB -9.19 dB 4:42 01-Wild Side (40th Anniversary Remastered)
DR7 -0.21 dB -8.39 dB 4:30 02-Girls, Girls, Girls (40th Anniversary Remastered)
DR7 -0.21 dB -7.96 dB 4:19 03-Dancing On Glass (40th Anniversary Remastered)
DR6 -0.21 dB -7.80 dB 3:27 04-Bad Boy Boogie (40th Anniversary Remastered)
DR9 -0.21 dB -11.12 dB 1:26 05-Nona (40th Anniversary Remastered)
DR7 -0.11 dB -7.91 dB 3:50 06-Five Years Dead (40th Anniversary Remastered)
DR7 -0.11 dB -7.99 dB 3:40 07-All In The Name Of (40th Anniversary Remastered)
DR7 -0.11 dB -8.19 dB 4:47 08-Sumthin' For Nuthin' (40th Anniversary Remastered)
DR7 -0.11 dB -8.66 dB 4:34 09-You're All I Need (40th Anniversary Remastered)
DR7 -0.11 dB -8.77 dB 4:39 10-Jailhouse Rock (Live) (40th Anniversary Remastered)
––––––––––––––––––––––––––––––––––––––––

Number of tracks: 10
Official DR value: DR7

Samplerate: 96000 Hz
Channels: 2
Bits per sample: 24
Bitrate: 3083 kbps
Codec: FLAC
================================================================================


All thanks go to the original releaser