Nathan Halpern - Goldie (Original Motion Picture Soundtrack) (2020) [Official Digital Download]

Posted By: Pisulik
Nathan Halpern - Goldie (Original Motion Picture Soundtrack) (2020) [Official Digital Download]

Nathan Halpern - Goldie (Original Motion Picture Soundtrack) (2020)
FLAC (tracks) 24-bit/48 kHz | Time - 22:32 minutes | 226 MB
Studio Master, Official Digital Download | Artwork: Front cover

Original Motion Picture Soundtrack for the film Goldie (2019). The music was composed by Nathan Halpern (The Rider, The Lovers and the Despot). Goldie is a 2019 American drama film written and directed by Sam de Jong. The film stars Slick Woods, George Sample III, Danny Hoch, Marsha Stephanie Blake, Gbenga Akinnagbe, Khris Davis, Edwina Findley Dickerson, Alanna Renee Tyler-Tompkins, Jazmyn C Dorsey, Angela Griszell, Jose Rodriguez, ASAP Ferg, Ito Aghayere.

Tracklist:

01. Nathan Halpern & Chris Ruggiero - Blow Up (0:45)
02. Nathan Halpern - Supreme (0:48)
03. Nathan Halpern & Chris Ruggiero - Goldie's Chase (0:54)
04. Nathan Halpern - Goldie's Escape (2:51)
05. Nathan Halpern & Erik Elligers - Eli's Song (1:07)
06. Nathan Halpern - Goldie in the Mirror (0:32)
07. Nathan Halpern - Goldie on the Run (0:48)
08. Nathan Halpern - Cold Slice (1:13)
09. Nathan Halpern - Mommy in the Mirror (1:14)
10. Nathan Halpern & Chris Ruggiero; Erik Elligers; Kurt Leon - Mister Bear (5:53)
11. Nathan Halpern - Goldie's Exit (2:42)
12. Nathan Halpern - Goldie's Girls (3:01)
13. Nathan Halpern & Chris Ruggiero - Goldie: End Credits (0:45)

foobar2000 1.3.7 / Dynamic Range Meter 1.1.1
log date: 2020-02-25 03:36:55

––––––––––––––––––––––––––––––––––––––––
Analyzed: Nathan Halpern / Goldie (Original Motion Picture Soundtrack)
––––––––––––––––––––––––––––––––––––––––

DR Peak RMS Duration Track
––––––––––––––––––––––––––––––––––––––––
DR10 0.00 dB -13.26 dB 0:45 01-Blow Up
DR9 -0.10 dB -13.63 dB 0:48 02-Supreme
DR8 0.00 dB -11.38 dB 0:54 03-Goldie's Chase
DR10 -0.10 dB -14.59 dB 2:51 04-Goldie's Escape
DR9 -0.10 dB -13.90 dB 1:07 05-Eli's Song
DR8 -7.73 dB -21.35 dB 0:32 06-Goldie in the Mirror
DR9 0.00 dB -14.11 dB 0:48 07-Goldie on the Run
DR9 -6.56 dB -21.74 dB 1:13 08-Cold Slice
DR8 -0.10 dB -14.26 dB 1:14 09-Mommy in the Mirror
DR11 -0.84 dB -16.87 dB 5:53 10-Mister Bear
DR10 -7.74 dB -24.24 dB 2:42 11-Goldie's Exit
DR13 -3.25 dB -21.89 dB 3:01 12-Goldie's Girls
DR11 0.00 dB -13.59 dB 0:45 13-Goldie: End Credits
––––––––––––––––––––––––––––––––––––––––

Number of tracks: 13
Official DR value: DR10

Samplerate: 48000 Hz
Channels: 2
Bits per sample: 24
Bitrate: 1522 kbps
Codec: FLAC
================================================================================


All thanks go to the original releaser