O.C. Smith - O.C. Smith At Home (1969/2019) [Official Digital Download 24/96]

Posted By: Pisulik
O.C. Smith - O.C. Smith At Home (1969/2019) [Official Digital Download 24/96]

O.C. Smith - O.C. Smith At Home (1969/2019)
FLAC (tracks) 24-bit/96 kHz | Time - 35:20 minutes | 824 MB
Studio Master, Official Digital Download | Artwork: Front cover

O.C. Smith at Home was the finest showcase for the singer's warm, baritone vocals. Produced by Jerry Fuller, the LP's songs revolved around home and heart. The LP cover featured the singer walking with a little boy. The second single, the rousing, dynamic "Daddy's Little Man," hit Billboard's charts in fall 1969. Its flip side was the driving, horn-accented soap opera-themed "If I Leave You Now." The lushly orchestrated "The Learning Tree" was the opening title theme of the family drama movie directed by Gordon Parks. "Friend, Lover, Woman, Wife" cracked the R&B Top 25. All of this musical magic was wrapped up in the great arrangements of H.B. Barnum. Some of the LP tracks appeared on his O.C. Smith's Greatest Hits.

Tracklist:

01. Daddy's Little Man
02. Friend, Lover, Woman, Wife
03. Color Him Father
04. Clean Up Your Own Back Yard
05. If I Leave You Now
06. My Cherie Amour
07. The Learning Tree
08. Didn't We
09. Sweet Changes
10. San Francisco Is a Lonely City
11. Can't Take My Eyes Off You

foobar2000 1.3.7 / Dynamic Range Meter 1.1.1
log date: 2019-12-14 03:35:58

––––––––––––––––––––––––––––––––––––––––
Analyzed: O.C. Smith / O.C. Smith At Home
––––––––––––––––––––––––––––––––––––––––

DR Peak RMS Duration Track
––––––––––––––––––––––––––––––––––––––––
DR11 -0.06 dB -14.12 dB 4:09 01-Daddy's Little Man
DR11 -0.04 dB -13.30 dB 3:13 02-Friend, Lover, Woman, Wife
DR9 -0.02 dB -11.40 dB 3:25 03-Color Him Father
DR9 -0.03 dB -11.94 dB 3:04 04-Clean Up Your Own Back Yard
DR10 0.00 dB -12.47 dB 3:19 05-If I Leave You Now
DR10 -0.05 dB -13.82 dB 3:17 06-My Cherie Amour
DR10 -0.06 dB -13.03 dB 3:01 07-The Learning Tree
DR10 -0.05 dB -12.57 dB 2:53 08-Didn't We
DR9 0.00 dB -11.79 dB 2:25 09-Sweet Changes
DR10 -0.05 dB -12.74 dB 3:09 10-San Francisco Is a Lonely City
DR11 -0.06 dB -14.02 dB 3:31 11-Can't Take My Eyes Off You
––––––––––––––––––––––––––––––––––––––––

Number of tracks: 11
Official DR value: DR10

Samplerate: 96000 Hz
Channels: 2
Bits per sample: 24
Bitrate: 3194 kbps
Codec: FLAC
================================================================================


All thanks go to the original releaser