Ottilie Patterson - She Ain't Just Trad, Dad! The First Lady of British Blues! (2020) [Official Digital Download]

Posted By: pyatak
Ottilie Patterson - She Ain't Just Trad, Dad! The First Lady of British Blues! (2020) [Official Digital Download]

Ottilie Patterson - She Ain't Just Trad, Dad! The First Lady of British Blues! (2020) [Official Digital Download]
FLAC (tracks) 24-bit/44.1 kHz | Front Cover | Time - 78:52 minutes | 678 MB
Jazz | Label: RevOla, Official Digital Download

Anna Ottilie Patterson (31 January 1932 – 20 June 2011) was a Northern Irish blues singer best known for her performances and recordings with the Chris Barber Jazz Band in the late 1950s and early 1960s.

TRACKLIST

1. Ottilie Patterson - I Hate A Man Like You (Live, Remastered)
2. Ottilie Patterson - Nobody Knows You When You're Down And Out (Remastered)
3. Ottilie Patterson - Beale St. Blues (Remastered)
4. Ottilie Patterson - Kay Cee Rider (Remastered)
5. Ottilie Patterson - I Love My Baby (Remastered)
6. Ottilie Patterson - Mean Mistreater (Live, Remastered)
7. Ottilie Patterson - Lowland Blues (Live, Remastered)
8. Ottilie Patterson - When The Saints Go Marching In (Live, Remastered)
9. Ottilie Patterson - When Things Go Wrong (Live, Remastered)
10. Ottilie Patterson - Moonshine Man (Live, Remastered)
11. Ottilie Patterson - Georgia Grind (Live, Remastered)
12. Ottilie Patterson - Strange Things Happening Every Day (Live, Remastered)
13. Ottilie Patterson - Trombone Cholly (Remastered)
14. Ottilie Patterson - As Long As I'm Moving (Remastered)
15. Ottilie Patterson - Bad Spell Blues (Remastered)
16. Ottilie Patterson - Kid Man Blues (Remastered)
17. Ottilie Patterson - Four Point Blues (Remastered)
18. Ottilie Patterson - It's All Over (Remastered)
19. Ottilie Patterson - Mama He Treats Your Daughter Mean (Remastered)
20. Ottilie Patterson - Tell Me Why (Remastered)
21. Ottilie Patterson - Me And My Chauffeur Blues (Remastered)
22. Ottilie Patterson - Lordy Lordy It Hurts So Bad (Remastered)
23. Ottilie Patterson - Only the Blues (Remastered)
24. Ottilie Patterson - Can't Afford To Do It (Live, Remastered)
25. Ottilie Patterson - Weeping Willow Blues (Live, Remastered)
26. Ottilie Patterson - I Hate Myself (For Being So Mean To You) (Remastered)
27. Ottilie Patterson - T'aint Nobody's Business If I Do (Remastered)

foobar2000 1.6.2 / Dynamic Range Meter 1.1.1
log date: 2021-01-12 21:13:05

––––––––––––––––––––––––––––––––––––––––
Analyzed: Ottilie Patterson / She Ain't Just Trad, Dad! The First Lady of British Blues!
––––––––––––––––––––––––––––––––––––––––

DR Peak RMS Duration Track
––––––––––––––––––––––––––––––––––––––––
DR12 -3.08 dB -17.40 dB 2:42 01-I Hate A Man Like You (Live, Remastered)
DR11 -4.09 dB -18.14 dB 3:50 02-Nobody Knows You When You're Down And Out (Remastered)
DR12 -3.24 dB -17.45 dB 2:14 03-Beale St. Blues (Remastered)
DR11 -3.92 dB -16.86 dB 2:07 04-Kay Cee Rider (Remastered)
DR11 -4.11 dB -17.02 dB 2:19 05-I Love My Baby (Remastered)
DR11 -4.33 dB -17.61 dB 3:09 06-Mean Mistreater (Live, Remastered)
DR11 -4.35 dB -18.56 dB 4:47 07-Lowland Blues (Live, Remastered)
DR10 -2.74 dB -14.19 dB 2:31 08-When The Saints Go Marching In (Live, Remastered)
DR11 -3.19 dB -15.80 dB 2:46 09-When Things Go Wrong (Live, Remastered)
DR11 -3.35 dB -15.86 dB 4:20 10-Moonshine Man (Live, Remastered)
DR11 -3.20 dB -15.72 dB 3:05 11-Georgia Grind (Live, Remastered)
DR11 -2.62 dB -14.73 dB 3:26 12-Strange Things Happening Every Day (Live, Remastered)
DR11 -3.06 dB -16.01 dB 2:42 13-Trombone Cholly (Remastered)
DR10 -2.55 dB -15.03 dB 2:39 14-As Long As I'm Moving (Remastered)
DR11 -2.64 dB -17.51 dB 3:59 15-Bad Spell Blues (Remastered)
DR10 -2.62 dB -15.26 dB 2:18 16-Kid Man Blues (Remastered)
DR12 -3.27 dB -17.42 dB 2:11 17-Four Point Blues (Remastered)
DR12 -3.30 dB -18.10 dB 3:28 18-It's All Over (Remastered)
DR11 -2.57 dB -16.25 dB 2:32 19-Mama He Treats Your Daughter Mean (Remastered)
DR11 -2.70 dB -16.42 dB 3:22 20-Tell Me Why (Remastered)
DR11 -3.15 dB -16.92 dB 1:33 21-Me And My Chauffeur Blues (Remastered)
DR12 -3.28 dB -18.50 dB 2:16 22-Lordy Lordy It Hurts So Bad (Remastered)
DR13 -4.41 dB -20.53 dB 3:15 23-Only the Blues (Remastered)
DR10 -2.25 dB -14.60 dB 2:15 24-Can't Afford To Do It (Live, Remastered)
DR11 -3.12 dB -15.76 dB 3:27 25-Weeping Willow Blues (Live, Remastered)
DR10 -3.81 dB -15.18 dB 2:04 26-I Hate Myself (For Being So Mean To You) (Remastered)
DR10 -2.76 dB -16.96 dB 3:49 27-T'aint Nobody's Business If I Do (Remastered)
––––––––––––––––––––––––––––––––––––––––

Number of tracks: 27
Official DR value: DR11

Samplerate: 44100 Hz
Channels: 2
Bits per sample: 24
Bitrate: 1363 kbps
Codec: FLAC
================================================================================



Thanks to the Original customer.