Paolo Fresu & Omar Sosa - Eros (2016) [Official Digital Download 24bit/96kHz]

Posted By: tiburon
Paolo Fresu & Omar Sosa - Eros (2016) [Official Digital Download 24bit/96kHz]

Paolo Fresu & Omar Sosa - Eros (2016)
FLAC tracks 24bit/96kHz | Digital Booklet | 1.4GB + 5% Recovery
Studio Master, Official Digital Download, Tūk Music

While the connection between Cuban pianist Omar Sosa and Italian trumpeter Paolo Fresu was established back in 2006, their partnership truly blossomed with Alma (Ota Music, 2012), a beauty of an album with a soft sell approach. That record—quite possibly the most moving item in either man's discography—prioritized heart over all else, and this follow-up date follows suit.
Track List
01. Teardrop / Ya Habibi
02. Sensuousness
03. Zeus' Desire
04. Brezza del Verano
05. My Soul, My Spirit
06. La Llamada
07. What Is Inside / Himeros
08. Who Wu
09. Eros mediterraneo
10. Fradelo
11. What Lies Ahead
12. Why
13. Kypris (Ghost Track)

musicians
Paolo Fresu - trumpet, flugelhorn, multi-effects, percussion
Omar Sosa - acoustic piano, keys, percussion, vocals
with:
Natacha Atlas - voice
Jaques Morelenbaum - cello
Quartetto Alborada:
Anton Berovski - violin
Sonia Peana - violin
Nico Ciricugno - viola
Piero Salvatori - cello

Produced by Paolo Fresu & Omar Sosa


––––––––––––––––––––––––––––––––––––––––
Analyzed: Paolo Fresu & Omar Sosa / Eros
––––––––––––––––––––––––––––––––––––––––

DR Peak RMS Duration Track
––––––––––––––––––––––––––––––––––––––––
DR10 -0.30 dB -12.87 dB 7:25 01-Teardrop / Ya Habibi (feat. Natacha Atlas)
DR10 -0.30 dB -14.84 dB 4:00 02-Sensuousness (feat. Jaques Morelenbaum)
DR9 -0.30 dB -12.09 dB 3:44 03-Zeus' Desires (feat. Jaques Morelenbaum)
DR9 -0.30 dB -11.17 dB 5:30 04-Brezza del Verano (feat. Jaques Morelenbaum)
DR11 -0.30 dB -14.83 dB 2:35 05-My Soul, My Spirit (feat. Natacha Atlas)
DR9 -0.30 dB -11.74 dB 5:43 06-La Llamada (feat. Jaques Morelenbaum)
DR9 -0.30 dB -12.81 dB 5:38 07-What Is Inside / Himeros (feat. Jaques Morelenbaum)
DR10 -0.30 dB -14.33 dB 3:42 08-Who Wu
DR9 -0.30 dB -12.32 dB 7:26 09-Eros Mediterraneo
DR11 -0.30 dB -14.07 dB 3:22 10-Fradelo
DR10 -0.30 dB -13.63 dB 3:05 11-What Lies Ahead
DR10 -0.30 dB -11.48 dB 5:00 12-Why (feat. Jaques Morelenbaum)
DR10 -0.30 dB -12.88 dB 10:43 13-Kypris (Ghost Track)
––––––––––––––––––––––––––––––––––––––––

Number of tracks: 13
Official DR value: DR10

Samplerate: 96000 Hz
Channels: 2
Bits per sample: 24
Bitrate: 3099 kbps
Codec: FLAC
================================================================================


Thanks to the original customer