Subcategories

Peter Gabriel - Passion: Music For The Last Temptation Of Christ (1989/2016) [Official Digital Download 24bit/96kHz]

Posted By: tiburon
Peter Gabriel - Passion: Music For The Last Temptation Of Christ (1989/2016)  [Official Digital Download 24bit/96kHz]

Peter Gabriel - Passion: Music For The Last Temptation Of Christ (1989)
FLAC tracks 24bit/96kHz | Front Cover | 1.34GB + 5% Recovery
Studio Master, Official Digital Download, B&W

Passion is in actuality Peter Gabriel's soundtrack to the Martin Scorsese film The Last Temptation of Christ, retitled as a result of legal barriers; regardless of its name, however, there's no mistaking the record's stirring power. Like much of Gabriel's solo work, the album is a product of his continuing fascination with world music, which he employs here to create an exceptionally beautiful and atmospheric tapestry of sound perfectly evocative of the film's resonant spiritual drama; inspired by field recordings collected in areas as diverse as Turkey, Senegal, and Egypt, Passion achieves a cumulative effect clearly Middle Eastern in origin, yet its brilliant fusion of ancient and modern musics ultimately transcends both geography and time. Remarkably dramatic, even visual, it is not only Gabriel's best film work but deserving of serious consideration as his finest music of any kind; equally worthwhile is Passion – Sources, which assembles the original native recordings which served as his creative launching pad.
Track List
01. The Feeling Begins
02. Gethsemane
03. Of These, Hope
04. Lazarus Raised
05. Of These, Hope – Reprise
06. In Doubt
07. A Different Drum
08. Zaar
09. Troubled
10. Open
11. Before Night Falls
12. With this Love
13. Sandstorm
14. Stigmata
15. Passion
16. With This Love – Choir
17. Wall Of Breath
18. The Promise Of Shadows
19. Disturbed
20. It Is Accomplished
21. Bread And Wine


––––––––––––––––––––––––––––––––––––––––
Analyzed: Peter Gabriel / Passion
––––––––––––––––––––––––––––––––––––––––

DR Peak RMS Duration Track
––––––––––––––––––––––––––––––––––––––––
DR11 -0.07 dB -15.45 dB 4:02 01-The Feeling Begins
DR10 -0.50 dB -17.77 dB 1:25 02-Gethsemane
DR12 -0.06 dB -13.99 dB 3:56 03-Of These, Hope
DR9 -11.78 dB -24.77 dB 1:25 04-Lazarus Raised
DR12 -2.07 dB -18.12 dB 2:45 05-Of These, Hope - Reprise
DR11 -2.54 dB -17.57 dB 1:32 06-In Doubt
DR11 -0.07 dB -13.29 dB 4:41 07-A Different Drum
DR11 -2.84 dB -17.66 dB 4:53 08-Zaar
DR15 -0.07 dB -19.06 dB 2:54 09-Troubled
DR11 -3.37 dB -18.00 dB 3:30 10-Open
DR10 -4.37 dB -21.26 dB 2:20 11-Before Night Falls
DR11 -3.34 dB -17.72 dB 3:39 12-With This Love
DR11 -0.09 dB -15.52 dB 3:02 13-Sandstorm
DR12 -3.37 dB -19.56 dB 2:28 14-Stigmata
DR11 -0.06 dB -14.81 dB 7:39 15-Passion
DR11 -4.09 dB -20.56 dB 3:20 16-With This Love (Choir)
DR10 -5.51 dB -20.16 dB 2:29 17-Wall Of Breath
DR13 -0.50 dB -16.11 dB 2:14 18-The Promise Of Shadows
DR13 -0.07 dB -17.38 dB 3:38 19-Disturbed
DR12 -0.11 dB -14.79 dB 2:55 20-It Is Accomplished
DR10 -3.57 dB -16.38 dB 2:22 21-Bread And Wine
––––––––––––––––––––––––––––––––––––––––

Number of tracks: 21
Official DR value: DR11

Samplerate: 96000 Hz
Channels: 2
Bits per sample: 24
Bitrate: 2763 kbps
Codec: FLAC
================================================================================


Thanks to the original customer