Tags
Language
Tags

Pymlico - Supermassive (2022)

Posted By: v3122
Pymlico - Supermassive (2022)

Pymlico - Supermassive (2022)
FLAC (Tracks) 24-bit/44.1 kHz | Official Digital Download | Time: 00:44:27
Progressive Rock | Apollon Records | ~ 524 Mb

3.5 stars. This is PYMLICO's latest offering called "Supermassive" another bright, happy, energetic album performed by seven skilled musicians. We even get mister positive vibes himself Roine Stolt listed as a special guest playing lead guitar on "Clockwork". We get guest trombone, trumpet and fender rhodes on "Time Out" plus some lap steel on "Breaking Protocol". This is so catchy! My first listen was odd because it really skirts around to being too light and too smooth and the sax player has a lot to do with that. It's all that's keeping me from giving this 4 stars but I need some experimental bits, dissonance, darkness, deep atmosphere, something that isn't… well like this album. I want grit in my Jazz, dirty organ, fuzzed out bass, something! For what it is, it is an incredible recording. I really am drawn to their sound but as I mentioned they go into territories I'm not into.
There are pictures of the band in either the studio or rehearsal room with a couple of framed pictures including THE POLICE as well as David Gilmour. And yes we get some Gilmour-like guitar on this record from one or both of the two lead guitarists. And everyone is smiling. The Broter brothers(drums, keyboards) had a hand in composing all the music except for tracks 2 and 8 which were solo compositions by Are Nerland the bass player who actually adds some additional keys and guitar as well. This is an all instrumental album and for some reason I picture myself driving at night through Toronto when I play this. I haven't been the big city since Steven Wilson's "Grace For Drowning" show and I hope to never go again, I prefer the slow life up here in cottage country. But it's funny how this seems to be the soundtrack for such an adventure.

If your into the lighter more streamlined Jazz stuff please check this talented band out you won't regret it.

by Mellotron Storm, progarchives
Pymlico - Supermassive (2022):

Tracklist:

01 - Breaking Protocol (00:06:04)
02 - Confusion (00:05:55)
03 - Clockwork (00:05:14)
04 - Are We There Yet (00:05:18)
05 - Time Out (00:06:18)
06 - Little Nellie (00:04:43)
07 - Doppelmayr (00:04:46)
08 - Wtg (00:06:06)

- Øyvind Brøter / keyboards
- Stephan Hvinden / guitars
- Andreas Sjo Engen / guitars
- Arild Brøter / drums, keyboards
- Oda Rydning / percussion
- Robin Havem Løvøy / saxophones
- Are Nerland / bass, synth bass

With:
- Roine Stolt / guitars (3)


foobar2000 1.4.2 / Dynamic Range Meter 1.1.1
log date: 2022-05-20 17:09:50

––––––––––––––––––––––––––––––––––––––––
Analyzed: Pymlico / Supermassive
––––––––––––––––––––––––––––––––––––––––

DR Peak RMS Duration Track
––––––––––––––––––––––––––––––––––––––––
DR9 -0.38 dB -11.24 dB 6:05 01-Breaking Protocol
DR9 -0.38 dB -11.59 dB 5:55 02-Confusion
DR9 -0.38 dB -11.01 dB 5:15 03-Clockwork
DR10 -0.38 dB -13.40 dB 5:19 04-Are We There Yet ?
DR10 -0.38 dB -11.31 dB 6:18 05-Time Out
DR10 -0.38 dB -12.13 dB 4:44 06-Little Nellie
DR10 -0.38 dB -11.94 dB 4:46 07-Doppelmayr
DR9 -0.38 dB -11.14 dB 6:06 08-WTG
––––––––––––––––––––––––––––––––––––––––

Number of tracks: 8
Official DR value: DR9

Samplerate: 44100 Hz
Channels: 2
Bits per sample: 24
Bitrate: 1633 kbps
Codec: FLAC

All thanks go to the original releaser

Download Pymlico - Supermassive (2022):