Tags
Language
Tags

Rêve D'éléphant Orchestra - Dance dance (2020) [Official Digital Download 24/88]

Posted By: pyatak
Rêve D'éléphant Orchestra - Dance dance (2020) [Official Digital Download 24/88]

Rêve D'éléphant Orchestra - Dance dance (2020) [Official Digital Download 24/88]
FLAC (tracks) 24-bit/88.2 kHz | Front Cover | Time - 55:36 minutes | 0,99 GB
Jazz | Label: Igloo, Official Digital Download

"Dance Dance" celebrates 20 years of Elephant Orchestra's dream ! A fifth album that marks a break with the previous ones, notably by the arrival of two new young musicians. Remarkable also because in these times of separatism, the two most important Belgian jazz labels - the Flemish De Werf and the French-speaking IGLOO Records-have decided to join forces to give life to this magnificent dream!

TRACKLIST

1. Rêve D'éléphant Orchestra - Bk
2. Rêve D'éléphant Orchestra - Papillon
3. Rêve D'éléphant Orchestra - Fureur volatile
4. Rêve D'éléphant Orchestra - Danse, danse, danse
5. Rêve D'éléphant Orchestra - La complainte de bernard
6. Rêve D'éléphant Orchestra - Post-scriptum
7. Rêve D'éléphant Orchestra - Quarte blanche
8. Rêve D'éléphant Orchestra - Stretch in Blue
9. Rêve D'éléphant Orchestra - Nemo

foobar2000 1.3.16 / Dynamic Range Meter 1.1.1
log date: 2020-10-20 18:12:57

––––––––––––––––––––––––––––––––––––––––
Analyzed: Rêve D'éléphant Orchestra / Dance dance
––––––––––––––––––––––––––––––––––––––––

DR Peak RMS Duration Track
––––––––––––––––––––––––––––––––––––––––
DR10 -0.97 dB -12.61 dB 4:34 01-Bk
DR11 -0.22 dB -13.30 dB 5:29 02-Papillon
DR10 -0.31 dB -12.00 dB 7:15 03-Fureur volatile
DR11 0.00 dB -13.28 dB 9:26 04-Danse, danse, danse
DR8 -1.35 dB -12.13 dB 6:17 05-La complainte de bernard
DR11 -0.05 dB -13.09 dB 4:42 06-Post-scriptum
DR9 -0.12 dB -12.48 dB 7:14 07-Quarte blanche
DR7 -2.68 dB -11.32 dB 3:48 08-Stretch in Blue
DR10 -0.37 dB -12.63 dB 6:56 09-Nemo
––––––––––––––––––––––––––––––––––––––––

Number of tracks: 9
Official DR value: DR10

Samplerate: 88200 Hz
Channels: 2
Bits per sample: 24
Bitrate: 2436 kbps
Codec: FLAC
================================================================================



Thanks to the Original customer.