Please register here if you want to download anything!

If domain in your address bar is different from the list below
PLEASE LEAVE THAT SITE IMMEDIATELY
❗IT'S A DANGEROUS FAKE❗



Spicy Magazines for Men! ;-)

Ricchi E Poveri - Voulez Vous Danser (1983) [LP, DSD128]

Posted By: Discograf_man
Ricchi E Poveri - Voulez Vous Danser (1983) [LP, DSD128]

Ricchi E Poveri - Voulez Vous Danser (1983) [LP, DSD128]
Italo-Disco | DSD128 (*.dsf, tracks), 1-bit/5.64 MHz
Run Time: 00:34:54 | 2.89 GB + 5% Recovery
Label: Baby Records | Release Year: 1983

The group was formed in 1967 by Franco Gatti (born 4 October 1942 in Genoa), Angela Brambati (born 20 October 1947 in Genoa), Angelo Sotgiu (born 22 February 1946 in Trinità d'Agultu e Vignola) and Marina Occhiena (born 19 March 1950 in Genoa). Their first public appearance was in Cantagiro 1968 with L'ultimo amore. Ricchi e Poveri has participated in the Sanremo Music Festival several times since 1970 and in 1971 they sang Che sarà. Ricchi e Poveri represented Italy in Eurovision Song Contest 1978 with the song Questo amore finishing 12th with 53 points. In 1981 Marina Occhiena left the group.
Ricchi e Poveri has recorded in Italian and Spanish and the group had some of the most popular italian songs of the 1980s and 1990s, including Mamma Maria, Made in Italy, M'innamoro di te, Se m'innamoro, and many others.
Their hit Che sarà has also been performed by José Feliciano and by the composer of the song's music, Jimmy Fontana. 1971 was the final year of the Sanremo festival in which each song was performed twice, each time by a different artist. Ricchi e Poveri gave the second performance of the song, following Feliciano, who had worldwide hits with italian, spanish and english versions of the song.
Ricchi E Poveri - Voulez Vous Danser (1983) [LP, DSD128]

Tracklist:

Side 1

A1 Voulez Vous Danser
A2 Hasta La Vista
A3 Acapulco
A4 Sei La Sola Che Amo
A5 Dan Dan (E Una Canzone D'Amore)

Side 2
B1 Cosa Sei
B2 Ciao Italy, Ciao Amore
B3 E Io Mi Sono Innamorato
B4 Un Altro Lui Un'Altra Lei
B5 Vento Caldo

Ricchi E Poveri - Voulez Vous Danser (1983) [LP, DSD128]


Personnel:

Ricchi e Poveri (Angela Brambati, Angelo Sotgiu, Franco Gatti) - voci
Gunther Gabauer - basso
Curt Cress - batteria, percussioni
Paolo Gianolio - chitarra
Fio Zanotti - tastiera
Mats Bjorklund - chitarra
Geoff Bastow - tastiera
Davide Romani - basso
Lele Melotti - batteria
Paola Orlandi, Gabriele Balducci, Lalla Francia, Marina Balestrieri, Michael Hofmann, Mario Balducci, Dario Farina, Silvio Pozzoli - cori

foobar2000 1.4 / Dynamic Range Meter 1.1.1
log date: 2019-08-13 13:04:47

––––––––––––––––––––––––––––––––––––––––
Analyzed: ? / ?
––––––––––––––––––––––––––––––––––––––––

DR Peak RMS Duration Track
––––––––––––––––––––––––––––––––––––––––
DR12 -5.39 dB -19.49 dB 3:46 ?-A1.Voulez Vous Danser
DR14 -6.12 dB -21.39 dB 3:59 ?-A2.Hasta La Vista
DR14 -6.09 dB -22.43 dB 3:46 ?-A3.Acapulco
DR11 -6.43 dB -20.26 dB 3:05 ?-A4.Sei La Sola Che Amo
DR13 -6.04 dB -20.76 dB 3:17 ?-A5.Dan Dan (E Una Canzone D'Amore)
DR10 -7.00 dB -20.40 dB 3:52 ?-B1.Cosa Sei
DR10 -6.84 dB -19.27 dB 3:02 ?-B2.Ciao Italy Ciao Amore
DR12 -6.15 dB -20.04 dB 3:34 ?-B3.E Io Mi Sono Innamorato
DR10 -6.59 dB -19.30 dB 2:56 ?-B4.Un Altro Lui Un'Altra Lei
DR12 -6.40 dB -21.66 dB 3:37 ?-B5.Vento Caldo
––––––––––––––––––––––––––––––––––––––––

Number of tracks: 10
Official DR value: DR12

Samplerate: 5644800 Hz / PCM Samplerate: 88200 Hz
Channels: 2
Bits per sample: 1
Bitrate: 11290 kbps
Codec: DSD128
================================================================================

Thanks to the original releaser!