RuPaul - AJ and The Queen (Original Television Soundtrack) (2020) [Official Digital Download]

Posted By: Pisulik
RuPaul - AJ and The Queen (Original Television Soundtrack) (2020) [Official Digital Download]

RuPaul - AJ and The Queen (Original Television Soundtrack) (2020)
FLAC (tracks) 24-bit/44.1 kHz | Time - 32:52 minutes | 415 MB
Studio Master, Official Digital Download | Artwork: Front cover

Original Television Soundtrack for the Netflix series AJ and The Queen Season 1 (2020). The music by RuPaul and Lior Rosner. AJ and The Queen is a 2020 American adventure comedy-drama web television series created by RuPaul Charles and Michael Patrick King, distributed by Netflix. The series stars RuPaul, Izzy G., Michael-Leon Wooley, Josh Segarra, Katerina Tannenbaum, Tia Carrere, Matthew Wilkas, Jo Farkas, Shawana Carter.

Tracklist:

01. RuPaul - Ruby Is Red Hot (From AJ and The Queen) (2:44)
02. RuPaul - Walk It Off (I'm On My Way) (3:11)
03. RuPaul - Ruby Is Red Hot (Retro Remix) (2:31)
04. RuPaul - Ruby Is Red Hot (Kummerspeck Remix) (2:30)
05. RuPaul - Ruby Is Red Hot (Lush Remix) (2:17)
06. Lior Rosner - In the Beginning (1:13)
07. Lior Rosner - AJ's Theme (3:16)
08. Lior Rosner - Lady Danger (3:08)
09. Lior Rosner - Mount Juliet (1:04)
10. Lior Rosner - AJ Bribes the Drag Fans (0:49)
11. Lior Rosner - Danielle Plans Some Trouble (1:12)
12. Lior Rosner - Lady Danger Breaking and Entering (0:52)
13. Lior Rosner - Queens to the Rescue (0:48)
14. Lior Rosner - Damian Visits Robert (2:00)
15. Lior Rosner - AJ Drop Off and Goodbye (2:14)
16. Lior Rosner - The End (3:04)

foobar2000 1.3.7 / Dynamic Range Meter 1.1.1
log date: 2020-02-05 04:27:10

––––––––––––––––––––––––––––––––––––––––
Analyzed: Lior Rosner / AJ and The Queen (Original Television Soundtrack) (1-11)
RuPaul / AJ and The Queen (Original Television Soundtrack) (12-16)
––––––––––––––––––––––––––––––––––––––––

DR Peak RMS Duration Track
––––––––––––––––––––––––––––––––––––––––
DR11 -3.27 dB -20.37 dB 1:13 06-In the Beginning
DR11 -0.50 dB -16.08 dB 3:16 07-AJ's Theme
DR6 -0.50 dB -10.27 dB 3:08 08-Lady Danger
DR6 -0.50 dB -10.81 dB 1:04 09-Mount Juliet
DR13 -0.50 dB -16.53 dB 0:49 10-AJ Bribes the Drag Fans
DR10 -0.49 dB -15.99 dB 1:12 11-Danielle Plans Some Trouble
DR11 -0.56 dB -17.77 dB 0:52 12-Lady Danger Breaking and Entering
DR10 -0.50 dB -16.66 dB 0:48 13-Queens to the Rescue
DR13 -2.31 dB -18.22 dB 2:00 14-Damian Visits Robert
DR12 -1.34 dB -18.56 dB 2:14 15-AJ Drop Off and Goodbye
DR9 0.00 dB -14.22 dB 3:04 16-The End
DR5 -0.49 dB -6.75 dB 2:44 01-Ruby Is Red Hot (From AJ and The Queen)
DR5 -0.48 dB -6.80 dB 3:11 02-Walk It Off (I'm On My Way)
DR5 -0.45 dB -6.49 dB 2:31 03-Ruby Is Red Hot (Retro Remix)
DR5 -0.49 dB -6.69 dB 2:30 04-Ruby Is Red Hot (Kummerspeck Remix)
DR4 -0.44 dB -6.71 dB 2:17 05-Ruby Is Red Hot (Lush Remix)
––––––––––––––––––––––––––––––––––––––––

Number of tracks: 16
Official DR value: DR9

Samplerate: 48000 Hz
Channels: 2
Bits per sample: 24
Bitrate: 1768 kbps
Codec: FLAC
================================================================================


All thanks go to the original releaser