Sarah Lancman - Inspiring Love (2016) {Official Digital Download 24-bit/96 kHz}

Posted By: popsakov
Sarah Lancman - Inspiring Love (2016) {Official Digital Download 24-bit/96 kHz}

Sarah Lancman - Inspiring Love (2016)
FLAC (Tracks) 24-bit/96 kHz | Front Cover | 00:50:48 | 1,05 Gb | 5% Recovery
Official Digital Download | Studio Master | Vocal Jazz | © 2016 Starprod

“She is really the great new voice of Jazz“ this is what Quincy Jones said to Sarah Lancman when she won the Grand Prix of the International Competition of the Montreux Jazz Festival in 2012. 17 gold Records, Music awards, Django d’or, Grand Prix de l’Académie du Jazz Django Reinhardt, no need to introduce the italian pianist Giovanni Mirabassi. They are now accomplices of their new album “Inspiring Love” released since November 18 whose 10 original compositions were recorded in New York, high place of this music.
Sarah Lancman: «All started with the improbable encounter with Giovanni Mirabassi near to the pub «Le Saint Jean» place des Abbesses.
I went there to listen to a concert of a friend and Giovanni had just returned from a Japan tour and was set up for a drink.
As a pianist myself, I always admired and listened to his music. I had just finished my first album “Dark“. I went to greet him to show my admiration and ask him if he could listen to my album. It happened a few months later. He then asked me if I was composing, because he saw an idea of an album to come.
I sent him by MMS on the old detuned piano of my parents, a draft of my song “Inspiring Love“.
He immediately loved the song and said, “Can you write me another 10 songs like that? “Which I set out to do afterwards.We then found a producer who dropped us at the last minute. We then had the idea of crowdfunding with “Kisskissbankbank”, and success exceeded our expectations, as we were able to exceed the target of more than 120%.
Giovanni Mirabassi also taught me to “dream big, otherwise it’s not funny” as he says and so we went to record the album in New York, mythical city of Jazz and cradle of my inspirations.
We have selected a prestigious rhythm section such as Gene Jackson (drummer including Herbie Hancock Trio), Alex Sipiagin (Michael Brecker trumpeter, Dave Holland, Mingus Big Band, etc.) and double bassist Gianluca Renzi.
We picked up a song by Charles Aznavour “Who?“ That we could later, make him listen. The dream went on, when I learned that he was going to do the preface of my album!
“Inspiring Love“ is for me a very personal album where I finally dared to reveal myself. I understood through the writing of the album that the title “Inspiring Love” could be read in both directions: love inspiring and being inspired by love. A duality that comes to the bottom of the same source: unconditional love. To love without waiting in return, without waiting, only to love and to be inspired, to create, to use it as a force.
Jacques Brel says so well in his song “The Quest“: “To love, even too much, even evil, to attempt, without strength and without armor to reach the inaccessible star …“
***************

Track List:

01. Inspiring Love [6:12]
02. Behind the Clouds [5:01]
03. On the Other Side of the World [2:19]
04. J'ai voulu partir [6:18]
05. Never Say That You Love Me [4:18]
06. The Gift [6:34]
07. Reste la [4:26]
08. Qui ? [4:01]
09. Mysterious Lane [3:47]
10. Talk to Me [3:37]
11. Our Secret [4:15]

Personnel:
Sarah Lancman - vocals
Giovanni Mirabassi - piano
Gianluca Renzi - bass
Gene Jackson - drums
Alex Sipiagin - trumpet, flugelhorn (3, 5, 6, 11)

foobar2000 1.2.6 / Dynamic Range Meter 1.1.1
log date: 2017-02-03 09:20:39

––––––––––––––––––––––––––––––––––––––––
Analyzed: Sarah Lancman / Inspiring Love
––––––––––––––––––––––––––––––––––––––––

DR Peak RMS Duration Track
––––––––––––––––––––––––––––––––––––––––
DR12 -0.60 dB -16.33 dB 6:12 01-Inspiring Love
DR10 -0.60 dB -14.74 dB 5:01 02-Behind the Clouds
DR10 -0.60 dB -12.47 dB 2:19 03-On the Other Side of the World
DR12 -1.29 dB -16.05 dB 6:18 04-J'ai voulu partir
DR13 -0.60 dB -15.86 dB 4:18 05-Never Say That You Love Me
DR11 -0.60 dB -14.07 dB 6:34 06-The Gift
DR11 -0.60 dB -16.36 dB 4:26 07-Reste la
DR12 -1.31 dB -17.73 dB 4:01 08-Qui ?
DR12 -0.60 dB -15.77 dB 3:47 09-Mysterious Lane
DR12 -0.60 dB -15.33 dB 3:37 10-Talk to Me
DR11 -0.60 dB -13.74 dB 4:15 11-Our Secret
––––––––––––––––––––––––––––––––––––––––

Number of tracks: 11
Official DR value: DR12

Samplerate: 96000 Hz
Channels: 2
Bits per sample: 24
Bitrate: 2975 kbps
Codec: FLAC
================================================================================

Sarah Lancman - Inspiring Love (2016) {Official Digital Download 24-bit/96 kHz}

All thanks go to the original customer

> Visit my blog <