Tags
Language
Tags
February 2023
Su Mo Tu We Th Fr Sa
29 30 31 1 2 3 4
5 6 7 8 9 10 11
12 13 14 15 16 17 18
19 20 21 22 23 24 25
26 27 28 1 2 3 4

Shel Silverstein - Boy Named Sue (1969/2020) [Official Digital Download 24/96]

Posted By: Pisulik
Shel Silverstein - Boy Named Sue (1969/2020) [Official Digital Download 24/96]

Shel Silverstein - Boy Named Sue (1969/2020)
FLAC (tracks) 24-bit/96 kHz | Time - 35:05 minutes | 789 MB
Studio Master, Official Digital Download | Artwork: Front cover

Shel Silverstein's most durable legacy has been his work as a children's book author, but between 1959 and 1980, he released a variety of albums, dabbling in multiple genres: jazz, folk, country, rock, and penning several memorable tunes, including the title track, famously covered by Johnny Cash. This rich collection from Water Music gathers all his country hits sung, with a smile and a wink, in an unmistakable basso profundo.

Tracklist:

01. Alimoney
02. Dirty Ol' Me
03. Cloudy Sky
04. Kick It Again
05. Someday's Here
06. Time
07. Boy Named Sue
08. Pathetic Way of Getting Over Me
09. Somebody Stole My Rig
10. Comin' After Jinny
11. Daylight Dreamer
12. Bigtime

foobar2000 1.3.7 / Dynamic Range Meter 1.1.1
log date: 2020-01-18 05:20:36

––––––––––––––––––––––––––––––––––––––––
Analyzed: Shel Silverstein / Boy Named Sue
––––––––––––––––––––––––––––––––––––––––

DR Peak RMS Duration Track
––––––––––––––––––––––––––––––––––––––––
DR11 -0.02 dB -12.89 dB 2:37 01-Alimoney
DR11 -0.04 dB -12.82 dB 4:26 02-Dirty Ol' Me
DR13 -0.09 dB -15.69 dB 2:51 03-Cloudy Sky
DR11 -0.06 dB -13.16 dB 2:05 04-Kick It Again
DR11 -0.04 dB -12.72 dB 1:59 05-Someday's Here
DR12 -0.09 dB -14.89 dB 3:43 06-Time
DR13 -0.07 dB -14.66 dB 3:58 07-Boy Named Sue
DR14 -0.09 dB -16.00 dB 2:32 08-Pathetic Way of Getting Over Me
DR13 -0.06 dB -14.33 dB 2:20 09-Somebody Stole My Rig
DR11 -0.06 dB -13.86 dB 3:22 10-Comin' After Jinny
DR11 -0.09 dB -14.57 dB 3:06 11-Daylight Dreamer
DR13 -0.05 dB -13.78 dB 2:12 12-Bigtime
––––––––––––––––––––––––––––––––––––––––

Number of tracks: 12
Official DR value: DR12

Samplerate: 96000 Hz
Channels: 2
Bits per sample: 24
Bitrate: 3200 kbps
Codec: FLAC
================================================================================


All thanks go to the original releaser