Sonic Youth - NYC Ghosts & Flowers (2000/2016) [TR24][OF]

Posted By: SERTiL
Sonic Youth - NYC Ghosts & Flowers (2000/2016) [TR24][OF]

Sonic Youth - NYC Ghosts & Flowers
Rock | FLAC (tracks) 24-bit/192 kHz | 42:40 min | 1.67 GB | Front Cover
Label: Geffen Records | Tracks: 08 | Rls.date: 2016

Continuing their high-brow path towards avant-garde guitar music and away from their late '80s punk-influenced style of controlled cacophony, Sonic Youth have continued to make it difficult for fans to follow their evolving style of influential alternative rock. With the aid of renowned producer Jim O'Rourke, this iconic group has stripped away much of the murky sound that polluted its late '80s masterpieces such as Daydream Nation and Sister. This new style of clean production on NYC Ghosts & Flowers also differs from the group's early '90s sound partly attributed to Butch Vig on colorful albums such as Dirty and Experimental Jet Set, Trash & No Star, where Vig masterfully juxtaposed the group's knack for noise with his gift for salient production. Similar to Experimental Jet Set, Trash & No Star, Sonic Youth have again written a collection of shorter songs, focused primarily upon lyrics and song structuring rather than guitars. Thurston Moore's songs dominate this record, sounding unlike anything he has ever written. These songs seem to evolve spontaneously, moving into and then out of Moore's Ginsberg-like beatnik vocals. Songs such as "Free City Rhymes" and "Small Flowers Crack Concrete" sound like the music from SYR 1 and SYR 2 accompanied by subtly spoken poetry, focused more on enunciation than melody. More than ever, it seems as if Moore has abandoned his goofball charisma of the past for his new status as an ambitious poet looking to be respected as much for his words as his guitar. Kim Gordon's contribution, "Nevermind (What Was It Anyway)," stands above all other songs on the album as the only song with a memorable yet kooky vocal melody: "Boys go to Jupiter to more stupider/ Girls go to Mars to become rock stars." Contributed by Lee Ranaldo, the title track of this album serves as the guitarist's best lyrical piece to date and also as the album's grand finale, stretching to nearly ten minutes of slow building guitar intensity. In the end, this Sonic Youth album will appeal to those attracted to the group's mellow side – a subtle side of the group more interested in collective contemplation than electrifying energy. Never before has the group sounded so consciously mature. For some fans, this album will sound refreshing, but for the many Sonic Youth fans still in love with the confrontational attitude of "Death Valley '69," the charged feel of "Teenage Riot," or the epic scope of "The Diamond Sea" this album may sound tired. Review by Jason Birchmeier

TRACKLIST
1 Free City Rhymes 7:30
2 Renegade Princess 5:47
3 Nevermind (What Was It Anyway) 5:33
4 Small Flowers Crack Concrete 5:10
5 Side2Side 3:32
6 StreamXsonik Subway 2:48
7 NYC Ghosts & Flowers 7:47
8 Lightnin' 3:50

BAND
Thurston Moore – uncredited performing, production
Kim Gordon – uncredited performing, sleeve illustration (Girl Drawing, 2000), production
Lee Ranaldo – uncredited performing, production, sleeve photography (1998)
Steve Shelley – uncredited performing, production

Additional personnel
Jim O'Rourke – bass guitar ("Free City Rhymes", "Small Flowers Crack Concrete"), electronics ("Side2Side"), production, additional recording, additional mixing
William Winant – percussion ("Side2Side")
Rafael Toral – Spacestatic guitar ("Renegade Princess")

foobar2000 1.3.7 / Замер динамического диапазона (DR) 1.1.1
Дата отчёта: 2016-12-16 13:08:43

––––––––––––––––––––––––––––––––––––––––
Анализ: Sonic Youth / NYC Ghosts & Flowers
––––––––––––––––––––––––––––––––––––––––

DR Пики RMS Продолжительность трека
––––––––––––––––––––––––––––––––––––––––
DR5 0.00 дБ -10.25 дБ 7:36 01-Free City Rhymes
DR6 0.00 дБ -9.38 дБ 5:39 02-Nevermind (What Was It Anyway)
DR5 0.00 дБ -9.43 дБ 5:15 03-Small Flowers Crack Concrete
DR6 0.00 дБ -9.18 дБ 2:52 04-StreamXSonik Subway
DR8 0.00 дБ -11.44 дБ 3:35 05-Side2Side
DR6 0.00 дБ -10.39 дБ 5:51 06-Renegade Princess
DR5 0.00 дБ -8.62 дБ 8:01 07-NYC Ghosts & Flowers
DR9 0.00 дБ -12.66 дБ 3:54 08-Lightnin'
––––––––––––––––––––––––––––––––––––––––

Количество треков: 8
Реальные значения DR: DR6

Частота: 192000 Гц
Каналов: 2
Разрядность: 24
Битрейт: 5326 кбит/с
Кодек: FLAC
================================================================================


Thanks to the Original customer.