SpuimaNovas - Kaleidoskop (2020) [Official Digital Download]

Posted By: Pisulik
SpuimaNovas - Kaleidoskop (2020) [Official Digital Download]

SpuimaNovas - Kaleidoskop (2020)
FLAC (tracks) 24-bit/44.1 kHz | Time - 45:15 minutes | 526 MB
Studio Master, Official Digital Download | Artwork: Front cover

Kaleidoskop the new album by Stefan Straubinger is a foray through various musical styles with his band Spui´maNovas. As when looking through a kaleidoscope, a wide variety of musical facets can be heard side by side. The Bavarian roots of the music of Spui´maNovas shine through in every piece of music. Music is played with a variety of old and modern instruments from Jew's harp to bandoneon, bagpipe, hurdy-gurdy, saxophone, double bass and drums. In addition to the family combo consisting of Eva, Stefan, Fridolin and Dominik Straubinger, the guest musicians Niko Schabel and Georg Karger. Special guests for the album are Evi Keglmaier (violin), Titus Waldenfels (banjo, steel guitar), Abathar Kmash (Oud) and Ludwig Himpsl with Riq, frame drum and Bendir. In this way, not only musically and temporally but also culturally, something is superimposed that might originally seem incompatible.

Tracklist:

1. Kaleidoskop (4:02)
2. Danzn (3:46)
3. Maizurka (5:07)
4. Eintagsbourree (4:18)
5. Faschingswalzer (4:07)
6. Birnbam Zwiefacher (3:11)
7. Arabischer Zwiefacher (3:41)
8. Saidi-Boarischer (4:51)
9. Wirtshauspolka (3:12)
10. Tanz aus Montafon (5:08)
11. Thaluett (1:13)
12. Der fröhliche Wippthaler (2:47)

foobar2000 1.3.7 / Dynamic Range Meter 1.1.1
log date: 2020-01-17 11:47:03

––––––––––––––––––––––––––––––––––––––––
Analyzed: SpuimaNovas / Kaleidoskop
––––––––––––––––––––––––––––––––––––––––

DR Peak RMS Duration Track
––––––––––––––––––––––––––––––––––––––––
DR9 -0.12 dB -11.23 dB 4:02 01-Kaleidoskop
DR9 -0.12 dB -10.47 dB 3:46 02-Danzn
DR9 -0.12 dB -10.12 dB 5:07 03-Maizurka
DR7 -0.12 dB -9.10 dB 4:18 04-Eintagsbourree
DR9 -0.12 dB -11.12 dB 4:07 05-Faschingswalzer
DR7 -0.12 dB -8.45 dB 3:11 06-Birnbam Zwiefacher
DR9 -0.12 dB -11.29 dB 3:41 07-Arabischer Zwiefacher
DR8 -0.12 dB -8.60 dB 4:51 08-Saidi-Boarischer
DR9 -0.12 dB -9.63 dB 3:12 09-Wirtshauspolka
DR8 -0.12 dB -10.01 dB 5:08 10-Tanz aus Montafon
DR10 -0.12 dB -12.96 dB 1:13 11-Thaluett
DR9 -0.12 dB -10.57 dB 2:47 12-Der fröhliche Wippthaler
––––––––––––––––––––––––––––––––––––––––

Number of tracks: 12
Official DR value: DR9

Samplerate: 44100 Hz
Channels: 2
Bits per sample: 24
Bitrate: 1608 kbps
Codec: FLAC
================================================================================


All thanks go to the original releaser